PropertyValue
etree:date
  • 2008-03-29
etree:description
  • 01. Hard Livin 02. Ain't Glad I'm Leavin' 03. Lone Pine Hill 04. I Don't Care 05. Your Biscuit's Big Enough For Me 06. Who Am I To Say 07. welcome Cory Younts 08. The Ghost Of Virginia 09. Chitlin Cookin Time In Cheatham County 10. South Georgia Sugar Babe 11. When You Walk Out On Me 12. A Desolate Angel's Blues
event:hasSubEvent
etree:id
  • JustinTownesEarle2008-03-29.matrix
etree:keyword
  • Live Concert
  • matrix of soundboard and audience sources
etree:lineage
  • WAV > Audacity 1.2.6a > xACT 1.6.4 > FLAC (level 8)
etree:notes
  • Justin Townes Earle & Cory Younts Saturday, March 29, 2008 UW- Memorial Union Rathskeller Madison WI McCarthy Trenching and Justin Townes Earle opened for Felice Brothers Audience: Neumann KM140’s > Beyer MV100 > H2 (mic pads set at -10dB) @48KHz/24bit SBD: Mackie SR 24-4 > PCM-M1 @48KHz/16bit Transfer: DAT > PCM-M1 > S/Pdif > Audiomedia III PCI card > Powermac G3/266 > Protools 4.1.1 > WAV (48KHz/16-bit) > Audacity 1.2.6 H2 > WAV (48KHz/24-bit) > Audacity 1.2.6 16-bit SBD DAT > Change Speed plugin at -.012% to match 24-bit audience WAV, files lined up by ear/eye, gain of each set to -3dB, one spot on SBD lowered using Amplify plugin, then the mix was output as WAV @48KHz/16-bit with triangle dither. This file was converted to 44.1KHz, again with triangle dither, tracked in 1/75 second increments, and output with no dither. Individual files > xACT 1.6.2 (flac level 8) > FLAC16 http://www.myspace.com/justinearle http://www.justintownesearle.com/ http://www.bloodshotrecords.com/artists/justintownesearle/ http://www.myspace.com/doyoucy http://www.mackie.com/products/sr32-4vlzpro/ SHNTOOL: length expanded size cdr WAVE problems fmt ratio filename 3:19.02 35108348 B --- -- ---xx JTE2008-03-29-matrix-t01.flac 3:03.33 32358860 B --- -- ---xx JTE2008-03-29-matrix-t02.flac 4:08.08 43766060 B --- -- ---xx JTE2008-03-29-matrix-t03.flac 2:12.64 23435372 B --- -- ---xx JTE2008-03-29-matrix-t04.flac 2:48.36 29719916 B --- -- ---xx JTE2008-03-29-matrix-t05.flac 3:39.33 38709260 B --- -- ---xx JTE2008-03-29-matrix-t06.flac 0:28.47 5049788 B --- -- ---xx JTE2008-03-29-matrix-t07.flac 3:12.70 34033484 B --- -- ---xx JTE2008-03-29-matrix-t08.flac 4:03.54 42992252 B --- -- ---xx JTE2008-03-29-matrix-t09.flac 3:23.30 35879804 B --- -- ---xx JTE2008-03-29-matrix-t10.flac 3:15.33 34475660 B --- -- ---xx JTE2008-03-29-matrix-t11.flac 4:38.14 49072172 B --- -- ---xx JTE2008-03-29-matrix-t12.flac 38:13.49 404600976 B 0.5508 (12 files) -=-=-=-=-=-=-=-=-=-=-=-=-=-=-=-=-=-=-=-=-=-=-=-=- Soundscape Preservation Society Founded 1991 http://www.iamtypingwithonefinger.com/SPS.html -=-=-=-=-=-=-=-=-=-=-=-=-=-=-=-=-=-=-=-=-=-=-=-=-
mo:performer
event:place
skos:prefLabel
  • Justin Townes Earle Live at Der Rathskeller- UW Memorial Union on 2008-03-29
rdfs:seeAlso
etree:source
  • SBD + Audience Matrix
event:time
rdf:type
etree:uploader
  • acffhmorst@gmail.com