PropertyValue
etree:date
  • 2013-02-08
etree:description
  • 01. intro 02. Lolo 03. Anything To Pass The Time 04. Captain Worry 05. V-Day 06. In The Light 07. Fix 08. Lights Flicker 09. See Me In Sky 10. (Ain't Nothin' But A) House Party
event:hasSubEvent
etree:id
  • MagicBox2013-02-08.Picklemix
etree:lineage
  • WAV > FLAC @24/48
etree:notes
  • Magic Box opened for The Mother Hips Recorded by Picklemic Mixed & Mastered by digitalist0ne & morst Mother Hips set is here: http://archive.org/details/MotherHips2013-02-08.Picklemix-2448 Video is available here: Anything To Pass The Time - Captain Worry: http://youtu.be/ruL2mUfvuHA See Me In Sky - House Party: http://youtu.be/0HMONhbNDwQ SHNTOOL LEN: length expanded size cdr WAVE problems fmt ratio filename 0:38.314 11034440 B cxx -- ---xx flac 0.5283 MagicBox2013-02-08t01.flac 3:46.885 65342996 B cxx -- ---xx flac 0.7974 MagicBox2013-02-08t02.flac 3:30.611 60655934 B cxx -- ---xx flac 0.7518 MagicBox2013-02-08t03.flac 4:56.667 85440242 B cxx -- ---xx flac 0.7776 MagicBox2013-02-08t04.flac 5:04.903 87812168 B cxx -- ---xx flac 0.7714 MagicBox2013-02-08t05.flac 8:49.491 152493374 B cxx -- ---xx flac 0.7338 MagicBox2013-02-08t06.flac 5:50.236 100868030 B cxx -- ---xx flac 0.7322 MagicBox2013-02-08t07.flac 5:22.718 92942690 B cxx -- ---xx flac 0.6986 MagicBox2013-02-08t08.flac 6:12.619 107314226 B cxx -- ---xx flac 0.7997 MagicBox2013-02-08t09.flac 5:09.444 89120006 B cxx -- ---xx flac 0.7785 MagicBox2013-02-08t10.flac 49:21.888 853024106 B 0.7545 (10 files)
mo:performer
event:place
skos:prefLabel
  • Magic Box Live at Schuba's Tavern on 2013-02-08
rdfs:seeAlso
etree:source
  • Picklemic AKG 522MS on stage + SBD > R44 > WAV @ 24/48
event:time
rdf:type
etree:uploader
  • acffhmorst@gmail.com