PropertyValue
etree:date
  • 2010-05-30
etree:description
  • Disc 1 (45:28.14) 01. intro 02. You Ain't Goin Nowhere 03. I Ain't Ever Satisfied 04. Break Out in Handcuffs 05. Fair To Even Odds 06. Who Can Say? 07. Whiter Shade Of Pale Disc 2 (59:05.26) 08. American Dream Rag 09. Greenport 10. Tell Me It's Okay 11. Stella Blue 12. On The Road Again 13. Kick It Open 14. Tell Me It's Okay 15. It's 4:20 Somewhere Disc 3 (44:05.57) 16. Mr. Spaceman 17. Red Crow 18. Wish We Had 19. Man In Me 20. Blink Of An Eye 21. GDTR 22. Down The Road A Piece 23. Love Potion #9
event:hasSubEvent
etree:id
  • Moonalice2010-05-30.TeamPickle
etree:keyword
  • Barry Sless
  • Big Steve Parish
  • John Molo
  • Live Concert
  • Moonalice Tribe
  • Pete Sears
etree:lineage
  • WAV > FLAC
etree:notes
  • Neumann KM140's on stand in front of center post > V3 + Allen & Heath GL3300 SBD control room outputs > Edirol R44 @24bit/48kHz Recorded by Jason "Picklemic" Loomis of Team Pickle Transferred & mixed by morst FoH: Tim (Moonalice) House Audio tech: John Thanks to Tucker & Sam for holding a nice spot for our micstand. SHNTOOL: length expanded size cdr WAVE problems fmt ratio filename 6:52.17 72716828 B --- -- ---xx Moonalice2010-05-30d1t01.flac 5:43.69 60667532 B --- -- ---xx Moonalice2010-05-30d1t02.flac 6:01.72 63849788 B --- -- ---xx Moonalice2010-05-30d1t03.flac 2:28.44 26210732 B --- -- ---xx Moonalice2010-05-30d1t04.flac 9:42.28 102730700 B --- -- ---xx Moonalice2010-05-30d1t05.flac 8:16.17 87534428 B --- -- ---xx Moonalice2010-05-30d1t06.flac 6:22.67 67542428 B --- -- ---xx Moonalice2010-05-30d1t07.flac 4:41.64 49718972 B --- -- ---xx Moonalice2010-05-30d2t01.flac 3:34.49 37864892 B --- -- ---xx Moonalice2010-05-30d2t02.flac 10:07.15 107110124 B --- -- ---xx Moonalice2010-05-30d2t03.flac 11:46.25 124597244 B --- -- ---xx Moonalice2010-05-30d2t04.flac 8:16.67 87652028 B --- -- ---xx Moonalice2010-05-30d2t05.flac 6:29.17 68659628 B --- -- ---xx Moonalice2010-05-30d2t06.flac 10:17.04 108848252 B --- -- ---xx Moonalice2010-05-30d2t07.flac 3:52.10 40948364 B --- -- ---xx Moonalice2010-05-30d2t08.flac 4:17.34 45414812 B --- -- ---xx Moonalice2010-05-30d3t01.flac 5:27.17 57722828 B --- -- ---xx Moonalice2010-05-30d3t02.flac 3:09.49 33454892 B --- -- ---xx Moonalice2010-05-30d3t03.flac 5:31.51 58508396 B --- -- ---xx Moonalice2010-05-30d3t04.flac 7:24.73 78493340 B --- -- ---xx Moonalice2010-05-30d3t05.flac 9:13.24 97605692 B --- -- ---xx Moonalice2010-05-30d3t06.flac 5:04.31 53698556 B --- -- ---xx Moonalice2010-05-30d3t07.flac 3:57.03 41813900 B --- -- ---xx Moonalice2010-05-30d3t08.flac 148:39.22 1573364356 B 0.5467 (23 files) -~-~-~-~-~-~-~-~-~-~-~-~-~-~-~-~-~-~-~-~-~-~-~-~-~- A Team Pickle Production, in cooperation with The Soundscape Preservation Society (Founded 1991) http://www.iamtypingwithonefinger.com/SPS.html -~-~-~-~-~-~-~-~-~-~-~-~-~-~-~-~-~-~-~-~-~-~-~-~-~-
mo:performer
event:place
skos:prefLabel
  • Moonalice Live at High Noon Saloon on 2010-05-30
rdfs:seeAlso
etree:source
  • SBD + Audience mic mix
event:time
rdf:type
etree:uploader
  • acffhmorst@gmail.com