PropertyValue
etree:date
  • 2007-10-07
etree:description
  • 01. intro 02. Wanted - Noisy Head - Counterclockwise 03. Banditos 04. Maybe We Should Fall In Love 05. Little Hungover You 06. Sleep Like A Baby 07. Mexico 08. World Ain't Gone Crazy - Beautiful Disaster 09. Let's Go Down Together 10. Bottom Of The Bay 11. Lemons 12. Your Name On A Grain Of Rice 13. Ándale 14. Goon Squad 15. Preacher's Daughter 16. Nada 17. Nada (ctd) 18. Americano 19. Hello New Day 20. encore break 21. band intros - Contraband 22. Mekong - Girly - King Of The Hill 23. taper signout
event:hasSubEvent
etree:id
  • RCPM2007-10-07
etree:keyword
  • Live concert
  • audience recording
etree:lineage
  • DAT master > Sony PCM-M1 > analog @ 48KHz > Audiomedia III PCI card > Powermac G3/266 > Protools 4.1.1 (convert to 44.1 KHz at "best" mode) > AIFF > Powermac G4/MDD-Dual 1.42 > Audacity 1.2.6 (tracking in 1/75 second intervals) > AIFF files > xACT 1.59 > FLAC (level 8)
etree:notes
  • Roger Clyne and the Peacemakers Sunday, October 7, 2007 The Annex Madison, WI Source: Neumann KM140's > Beyer MV100 > Sony PCM-M1 > DAT master ORTF shock mounted cardioid condenser microphone pair, on 6' stand with windscreens, FOB right center Transfer: DAT master > Sony PCM-M1 > analog @ 48KHz > Audiomedia III PCI card > Powermac G3/266 > Protools 4.1.1 (convert to 44.1 KHz at "best" mode) > AIFF > Powermac G4/MDD-Dual 1.42 > Audacity 1.2.6 (tracking in 1/75 second intervals) > AIFF files > xACT 1.59 > FLAC (level 8) taper: TAS aka morst notes: Alternate Routes opened I missed a couple of track breaks, and split Nada in two! Oops! Disc 1 (50:03.51) 01. intro 02. Wanted -> Noisy Head -> Counterclockwise 03. Banditos (Refreshments) 04. Maybe We Should Fall In Love 05. Little Hungover You 06. Sleep Like A Baby 07. Mexico (Refreshments) 08. World Ain't Gone Crazy -> Beautiful Disaster 09. Let's Go Down Together 10. Bottom Of The Bay Disc 2 (55:39.16) 01. Lemons 02. Your Name On A Grain Of Rice 03. Ándale 04. Goon Squad 05. Preacher's Daughter 06. Nada (Refreshments) 07. Nada (ctd) 08. Americano 09. Hello New Day 10. encore break 11. band intros -> Contraband 12. Mekong (Refreshments) -> Girly -> King Of The Hill 13. taper signout length expanded size cdr WAVE problems filename 0:28.46 5047436 --- -- ---xx RCPM2007-10-07d1t01.flac 10:33.00 111661244 --- -- ---xx RCPM2007-10-07d1t02.flac 5:23.05 56989004 --- -- ---xx RCPM2007-10-07d1t03.flac 3:24.47 36096188 --- -- ---xx RCPM2007-10-07d1t04.flac 5:09.24 54564092 --- -- ---xx RCPM2007-10-07d1t05.flac 3:50.15 40607324 --- -- ---xx RCPM2007-10-07d1t06.flac 4:55.56 52169756 --- -- ---xx RCPM2007-10-07d1t07.flac 7:30.31 79452956 --- -- ---xx RCPM2007-10-07d1t08.flac 4:13.37 44716268 --- -- ---xx RCPM2007-10-07d1t09.flac 4:35.15 48545324 --- -- ---xx RCPM2007-10-07d1t10.flac 4:11.16 44314076 --- -- ---xx RCPM2007-10-07d2t01.flac 4:42.19 49789532 --- -- ---xx RCPM2007-10-07d2t02.flac 4:58.20 52614284 --- -- ---xx RCPM2007-10-07d2t03.flac 3:38.55 38584604 --- -- ---xx RCPM2007-10-07d2t04.flac 3:22.14 35665772 --- -- ---xx RCPM2007-10-07d2t05.flac 4:05.03 43225100 --- -- ---xx RCPM2007-10-07d2t06.flac 2:20.01 24698396 --- -- ---xx RCPM2007-10-07d2t07.flac 4:02.59 42827612 --- -- ---xx RCPM2007-10-07d2t08.flac 4:21.11 46066316 --- -- ---xx RCPM2007-10-07d2t09.flac 0:41.25 7291244 --- -- ---xx RCPM2007-10-07d2t10.flac 7:19.68 77599580 --- -- ---xx RCPM2007-10-07d2t11.flac 10:41.19 113117132 --- -- ---xx RCPM2007-10-07d2t12.flac 1:15.06 13244208 -b- -- ---xx RCPM2007-10-07d2t13.flac 105:42.67 1118887448 B (totals for 23 files, 0.5092 overall compression ratio) -=-=-=-=-=-=-=-=-=-=-=-=-=-=-=-=-=-=-=-=-=-=-=-=- Soundscape Preservation Society Founded 1991 http://www.iamtypingwithonefinger.com/SPS.html -=-=-=-=-=-=-=-=-=-=-=-=-=-=-=-=-=-=-=-=-=-=-=-=-
mo:performer
event:place
skos:prefLabel
  • Roger Clyne and The Peacemakers Live at The Annex on 2007-10-07
rdfs:seeAlso
etree:source
  • Neumann KM140's > Beyer MV100 > Sony PCM-M1 > DAT master
event:time
rdf:type
etree:uploader
  • acffhmorst@gmail.com