PropertyValue
etree:date
  • 2013-09-12
etree:description
  • 1 intro 2 Marie 3 Beautiful Disaster 4 Counterclockwise 5 Banditos 6 Yahoos & Triangles 7 Mekong 8 Heaven on a Paper Plate 9 Contraband 10 Dinero 11 Wanted > Americano! 12 Green & Dumb 13 All Over the Radio
event:hasSubEvent
etree:id
  • RCPM2013-09-12
etree:keyword
  • 24-bit
  • 24-bit high resolution version - NOT for direct CD burning
  • Camper Van Beethoven
  • Campout
  • Campout 9
  • Cracker
  • Crampout
  • Live Concert
  • Pi-Town
  • Pioneertown
  • Pitown
  • SBD + AUD recording
etree:lineage
  • WAV > FLAC @24/48
etree:notes
  • 9th annual Cracker Camper Van Beethoven campout SHNTOOL LEN: length expanded size cdr WAVE problems fmt ratio filename 0:51.974 14968610 B cxx -- ---xx flac 0.6254 RCPM2013-09-12t01.flac 3:54.425 67514372 B cxx -- ---xx flac 0.7224 RCPM2013-09-12t02.flac 3:58.739 68756924 B cxx -- ---xx flac 0.7256 RCPM2013-09-12t03.flac 4:15.733 73651052 B cxx -- ---xx flac 0.7093 RCPM2013-09-12t04.flac 4:26.704 76810748 B cxx -- ---xx flac 0.7250 RCPM2013-09-12t05.flac 1:35.505 27505628 B cxx -- ---xx flac 0.6988 RCPM2013-09-12t06.flac 4:50.625 83700134 B cxx -- ---xx flac 0.7124 RCPM2013-09-12t07.flac 4:22.273 75534800 B cxx -- ---xx flac 0.7167 RCPM2013-09-12t08.flac 8:42.874 150587756 B cxx -- ---xx flac 0.7139 RCPM2013-09-12t09.flac 3:39.180 63123782 B cxx -- ---xx flac 0.7098 RCPM2013-09-12t10.flac 7:55.339 136897772 B cxx -- ---xx flac 0.7118 RCPM2013-09-12t11.flac 6:56.914 120071360 B cxx -- ---xx flac 0.6587 RCPM2013-09-12t12.flac 5:23.535 93178190 B cxx -- ---xx flac 0.6910 RCPM2013-09-12t13.flac 60:53.821 1052301128 B 0.7053 (13 files) ~-~-~-~-~-~-~-~-~-~-~-~-~-~-~-~-~-~-~-~-~-~-~-~-~- The Soundscape Preservation Society (Founded 1991) http://www.iamtypingwithonefinger.com/SPS.html -~-~-~-~-~-~-~-~-~-~-~-~-~-~-~-~-~-~-~-~-~-~-~-~-~-
mo:performer
event:place
skos:prefLabel
  • Roger Clyne and The Peacemakers Live at Pappy & Harriet's (indoor stage) on 2013-09-12
rdfs:seeAlso
etree:source
  • SBD + AUD mix @24/48
event:time
rdf:type
etree:uploader
  • acffhmorst@gmail.com