PropertyValue
etree:date
  • 2010-02-18
etree:description
  • Ralph Roddenbery Smith's Olde Bar Atlanta, Georgia 2/18/2010 Source: Schoeps CCM4V'S(din)>Lunatec V2>Benchmark AD2K> Sound Devices 722 (24/48) FOB/DFC/KFC/ZFC/AARP 17' From Stage, 7' High DSP: Sound Devices 722>Sound Forge 9.0>CD Wave>flac(16) Recorded By: Z-Man Disc I 01 Look Ma, No Brains 02 That's Gonna Leave A Mark 03 Clearly Vague 04 Paper Doll In A Forrest Fire 05 This Very Day 06 Take The Time 07 *Banter 08 *Maud Only Knows 09 #Walkin' In The Sunlight 10 Get Up Off Your Hands And Fly Soundcheck: 11 Tumbleweed * With Scott McCready On Vocals # With Michael Tolcha On Vocals
event:hasSubEvent
etree:id
  • RalphRoddenbery2010-02-18.zman.ccm4v.fob.flac16
etree:keyword
  • Ralph Roddenbery
  • Schoeps
  • Z-Man
  • ccm4v
etree:lineage
  • Sound Devices 722>Sound Forge 9.0>CD Wave>flac(16)
etree:notes
  • Ralph Roddenbery Smith's Olde Bar Atlanta, Georgia 2/18/2010 Source: Schoeps CCM4V'S(din)>Lunatec V2>Benchmark AD2K> Sound Devices 722 (24/48) FOB/DFC/KFC/ZFC/AARP 17' From Stage, 7' High DSP: Sound Devices 722>Sound Forge 9.0>CD Wave>flac(16) Recorded By: Z-Man Shntool length expanded size cdr WAVE problems fmt ratio filename 6:13.16 65834876 B --- -- ---xx flac 0.5083 ralph2010-02-18d01t01.flac 6:52.66 72832076 B --- -- ---xx flac 0.5126 ralph2010-02-18d01t02.flac 6:52.22 72728588 B --- -- ---xx flac 0.5444 ralph2010-02-18d01t03.flac 6:11.70 65609084 B --- -- ---xx flac 0.5231 ralph2010-02-18d01t04.flac 4:43.14 49954172 B --- -- ---xx flac 0.5594 ralph2010-02-18d01t05.flac 5:27.16 57720476 B --- -- ---xx flac 0.4935 ralph2010-02-18d01t06.flac 1:39.29 17531852 B --- -- ---xx flac 0.4083 ralph2010-02-18d01t07.flac 4:50.69 51318332 B --- -- ---xx flac 0.5107 ralph2010-02-18d01t08.flac 4:59.53 52868300 B --- -- ---xx flac 0.5435 ralph2010-02-18d01t09.flac 7:10.65 76004924 B --- -- ---xx flac 0.5694 ralph2010-02-18d01t10.flac 1:52.43 19857980 B --- -- ---xx flac 0.4953 ralph2010-02-18d01t11.flac 56:54.13 602260660 B 0.5253 (11 files)
mo:performer
event:place
skos:prefLabel
  • Ralph Roddenbery Band Live at Smith's Olde Bar on 2010-02-18
rdfs:seeAlso
etree:source
  • Schoeps CCM4V'S(din)>Lunatec V2>Benchmark AD2K> Sound Devices 722 (24/48)
event:time
rdf:type
etree:uploader
  • capt.krinklebeinIII@yahoo.com