PropertyValue
etree:date
  • 2010-03-11
etree:description
  • Ralph Roddenbery Trio And Friends Zuffy's Place Atlanta, Georgia 3/11/2010 Source: Schoeps CCM4V'S(din)>Lunatec V2>Benchmark AD2K> Sound Devices 722 (24/48) FOB/DFC/KFC/ZFC/AARP 8' From Stage, 7' High DSP: Sound Devices 722>Sound Forge 9.0>CD Wave>flac(16) Recorded By: Z-Man Disc I 1st Set 01 Tuning 02 *Dancin' Round the True 03 *Look Ma, No Brains 04 *Have A Little Fun 05 *? 06 *Nursery Rhyme 07 Banter/Tuning 08 *$100 Lesson 09 *My Baby's Name Is Cyber Space 10 *Mr. Misunderstood 11 Banter 12 *#So Very Thankful For This Very Day 13 *#Someway, Somewhere, Somehow 14 Banter 15 *#I Wish I Felt As Good As You Look Disc II 2nd Set Doug Bryant Solo 01 ? 02 ? Denny Valeski, Theodore Valeski, and Zebulon 03 Tuning 04 Get A Buzz On 05 I Like Drinkin' (With Richie On Drums) 06 Sunday Morning Ralph Roddenbery Trio 07 *Tumbleweed 08 *#Sir William's Garden 09 *#@Don't Trust The Government 10 People Let The Sun Shine In 3rd Set Holy Ghost Tent Revival 11 Vipor's Twist 12 My Heart Is Yours 13 Gettin' Over your Love 14 Northbound And Southpaw 15 Love Emergency > 16 Drum Solo > 17 Love Emergency Disc III 4th Set 01 Tuning 02 *Maude Only Knows 03 *Get Up Off Your Hands 04 *That's Gonna Leave A Mark 05 *Wake Me Up 06 *#50 Ways To Date Danny Glover 07 *#@? 08 *#Illegal Smile 09 *#I've Got All The Time In The World 10 *#Everybody Got To Be Yourself 11 *#^Monkey See, Monkey Do > 12 *#^Pushin' On A Pull Door * With Zebulon Bowles Of Stop, Drop, And Roll On Fiddle # With Beatle On Acoustic Guitar @ With Will Gordon On Harmonica ^ With Patrick Leslie Of Holy Ghost Tent Revival On Bass The Band: Ralph Roddenbery - Guitar And Vocals Samantha Alessi-Jones - Vocals And Percussion Richie Jones - Drums And Vocals
event:hasSubEvent
etree:id
  • RalphRoddenbery2010-03-11.zman.schoeps.ccm4v.fob.flac16
etree:keyword
  • CCM4V
  • FOB
  • Schoeps
  • Z-Man
etree:lineage
  • Sound Devices 722>Sound Forge 9.0>CD Wave>flac(16)
etree:notes
  • Ralph Roddenbery Trio And Friends Zuffy's Place Atlanta, Georgia 3/11/2010 Source: Schoeps CCM4V'S(din)>Lunatec V2>Benchmark AD2K> Sound Devices 722 (24/48) FOB/DFC/KFC/ZFC/AARP 8' From Stage, 7' High DSP: Sound Devices 722>Sound Forge 9.0>CD Wave>flac(16) Recorded By: Z-Man Uploaded To Archive.org By: ekoostikal (capt.krinklebeiniii@yahoo.com) Shntool length expanded size cdr WAVE problems fmt ratio filename 0:31.58 5604860 B --- -- ---xx flac 0.3351 ralph2010-03-11d01t01.flac 7:08.17 75539228 B --- -- ---xx flac 0.4582 ralph2010-03-11d01t02.flac 6:15.74 66324092 B --- -- ---xx flac 0.4565 ralph2010-03-11d01t03.flac 8:04.61 85521116 B --- -- ---xx flac 0.5010 ralph2010-03-11d01t04.flac 6:11.07 65460908 B --- -- ---xx flac 0.4529 ralph2010-03-11d01t05.flac 4:31.73 47976140 B --- -- ---xx flac 0.5145 ralph2010-03-11d01t06.flac 3:47.43 40143980 B --- -- ---xx flac 0.3131 ralph2010-03-11d01t07.flac 5:58.53 63275900 B --- -- ---xx flac 0.5014 ralph2010-03-11d01t08.flac 3:03.41 32377676 B --- -- ---xx flac 0.5007 ralph2010-03-11d01t09.flac 4:46.05 50462204 B --- -- ---xx flac 0.5178 ralph2010-03-11d01t10.flac 3:42.72 39330188 B --- -- ---xx flac 0.3536 ralph2010-03-11d01t11.flac 6:55.59 73344812 B --- -- ---xx flac 0.4875 ralph2010-03-11d01t12.flac 5:17.05 55930604 B --- -- ---xx flac 0.5429 ralph2010-03-11d01t13.flac 2:41.49 28515692 B --- -- ---xx flac 0.3367 ralph2010-03-11d01t14.flac 5:30.35 58294364 B --- -- ---xx flac 0.5303 ralph2010-03-11d01t15.flac 3:50.06 40586156 B --- -- ---xx flac 0.4386 ralph2010-03-11d02t01.flac 2:51.72 30333788 B --- -- ---xx flac 0.4485 ralph2010-03-11d02t02.flac 2:22.37 25135868 B --- -- ---xx flac 0.3517 ralph2010-03-11d02t03.flac 4:15.07 44998508 B --- -- ---xx flac 0.5130 ralph2010-03-11d02t04.flac 4:20.05 45875804 B --- -- ---xx flac 0.4876 ralph2010-03-11d02t05.flac 4:43.63 50069420 B --- -- ---xx flac 0.4013 ralph2010-03-11d02t06.flac 5:59.08 63346460 B --- -- ---xx flac 0.4831 ralph2010-03-11d02t07.flac 8:41.21 91953836 B --- -- ---xx flac 0.4344 ralph2010-03-11d02t08.flac 6:48.53 72095900 B --- -- ---xx flac 0.5339 ralph2010-03-11d02t09.flac 4:31.68 47964380 B --- -- ---xx flac 0.4897 ralph2010-03-11d02t10.flac 8:38.43 91476380 B --- -- ---xx flac 0.4877 ralph2010-03-11d02t11.flac 5:02.28 53338700 B --- -- ---xx flac 0.5173 ralph2010-03-11d02t12.flac 4:27.33 47176460 B --- -- ---xx flac 0.5225 ralph2010-03-11d02t13.flac 5:25.41 57426476 B --- -- ---xx flac 0.4885 ralph2010-03-11d02t14.flac 3:23.51 35929196 B --- -- ---xx flac 0.5023 ralph2010-03-11d02t15.flac 1:18.14 13792172 B --- -- ---xx flac 0.4876 ralph2010-03-11d02t16.flac 2:33.53 27113900 B --- -- ---xx flac 0.4992 ralph2010-03-11d02t17.flac 2:20.52 24818348 B --- -- ---xx flac 0.3692 ralph2010-03-11d03t01.flac 4:39.69 49377932 B --- -- ---xx flac 0.5093 ralph2010-03-11d03t02.flac 7:17.62 77232668 B --- -- ---xx flac 0.5473 ralph2010-03-11d03t03.flac 8:08.68 86243180 B --- -- ---xx flac 0.5141 ralph2010-03-11d03t04.flac 8:24.03 88912700 B --- -- ---xx flac 0.5149 ralph2010-03-11d03t05.flac 1:19.71 14102636 B --- -- ---xx flac 0.4408 ralph2010-03-11d03t06.flac 8:15.67 87475628 B --- -- ---xx flac 0.5891 ralph2010-03-11d03t07.flac 5:40.48 60088940 B --- -- ---xx flac 0.4894 ralph2010-03-11d03t08.flac 5:38.73 59794940 B --- -- ---xx flac 0.5656 ralph2010-03-11d03t09.flac 10:23.22 109948988 B --- -- ---xx flac 0.5050 ralph2010-03-11d03t10.flac 6:28.02 68447948 B --- -- ---xx flac 0.5954 ralph2010-03-11d03t11.flac 8:16.04 87503852 B --- -- ---xx flac 0.5692 ralph2010-03-11d03t12.flac 230:35.71 2440662928 B 0.4943 (44 files)
mo:performer
event:place
skos:prefLabel
  • Ralph Roddenbery Band Live at Zuffy's Place on 2010-03-11
rdfs:seeAlso
etree:source
  • Schoeps CCM4V'S(din)>Lunatec V2>Benchmark AD2K> Sound Devices 722
event:time
rdf:type
etree:uploader
  • capt.krinklebeinIII@yahoo.com