PropertyValue
etree:date
  • 2010-03-14
etree:description
  • Ralph Roddenbery Band Second Sunday Concert Series washington Park Macon, Georgia 3/14/2010 Source: Schoeps CCM4V'S(din)>Lunatec V2>Benchmark AD2K> Sound Devices 722 (24/48) FOB/DFC/KFC/ZFC/AARP 22' From Stage, 6' High DSP: Sound Devices 722>Sound Forge 9.0>CD Wave>flac(16) Recorded By: Z-Man Disc I 01 Greeting/Tuning 02 Makes Me Thankful For This Morning Bliss 03 Have A Little Fun 04 Nobody Else Can Be Yourself 05 Announcements By Jessica Walter 06 They Call Him Tumbleweed 07 Get Up Off Your Hands 08 The Waves 09 Banter 10 Paper Dolls In Forrest Fires 11 Band Introductions 12 Take The Time To Make The Time 13 Banter On Writing Maude Only Knows 14 Maude Only Knows 15 Banter Disc II 01 Mail Call 02 All The Time In The world 03 People Let The Sun Shine In 04 Fix Myself 05 That's Gonna Leave A Mark 06 I Wish I Felt As Good As You Look 07 Banter 08 *#Pushin' On A Pull Door 09 So Very Thankful For This Very Day 10 Life 11 Outro Banter/Thanks By Ralph * With Anastasia On Vocals # With Jillian On Vocals
event:hasSubEvent
etree:id
  • RalphRoddenbery2010-03-14.zman.schoeps.ccm4v.fob.flac16
etree:keyword
  • CCM4V
  • FOB
  • Schoeps
  • Z-Man
etree:lineage
  • 722>Sound Forge 9.0>CD Wave>flac(16)
etree:notes
  • Ralph Roddenbery Band Second Sunday Concert Series washington Park Macon, Georgia 3/14/2010 Source: Schoeps CCM4V'S(din)>Lunatec V2>Benchmark AD2K> Sound Devices 722 (24/48) FOB/DFC/KFC/ZFC/AARP 22' From Stage, 6' High DSP: Sound Devices 722>Sound Forge 9.0>CD Wave>flac(16) Recorded By: Z-Man Uploaded To Archive.org By: ekoostikal (capt.krinklebeiniii@yahoo.com) Shntool length expanded size cdr WAVE problems fmt ratio filename 1:19.36 14020316 B --- -- ---xx flac 0.3641 ralph2010-03-14d01t01.flac 4:10.39 44191772 B --- -- ---xx flac 0.4036 ralph2010-03-14d01t02.flac 6:39.52 70505948 B --- -- ---xx flac 0.5238 ralph2010-03-14d01t03.flac 7:07.34 75402812 B --- -- ---xx flac 0.4856 ralph2010-03-14d01t04.flac 2:34.55 27295004 B --- -- ---xx flac 0.3157 ralph2010-03-14d01t05.flac 5:19.14 56304572 B --- -- ---xx flac 0.5258 ralph2010-03-14d01t06.flac 7:24.74 78495692 B --- -- ---xx flac 0.5254 ralph2010-03-14d01t07.flac 3:45.07 39706508 B --- -- ---xx flac 0.5553 ralph2010-03-14d01t08.flac 1:18.14 13792172 B --- -- ---xx flac 0.3403 ralph2010-03-14d01t09.flac 5:37.69 59609132 B --- -- ---xx flac 0.5198 ralph2010-03-14d01t10.flac 1:23.01 14643596 B --- -- ---xx flac 0.3655 ralph2010-03-14d01t11.flac 6:13.64 65947772 B --- -- ---xx flac 0.4676 ralph2010-03-14d01t12.flac 2:44.19 28974332 B --- -- ---xx flac 0.3474 ralph2010-03-14d01t13.flac 4:07.46 43679036 B --- -- ---xx flac 0.5168 ralph2010-03-14d01t14.flac 1:39.67 17621228 B --- -- ---xx flac 0.3156 ralph2010-03-14d01t15.flac 5:23.64 57127772 B --- -- ---xx flac 0.4944 ralph2010-03-14d02t01.flac 4:59.46 52851836 B --- -- ---xx flac 0.4826 ralph2010-03-14d02t02.flac 4:55.05 52049804 B --- -- ---xx flac 0.5255 ralph2010-03-14d02t03.flac 6:47.54 71921852 B --- -- ---xx flac 0.5366 ralph2010-03-14d02t04.flac 6:01.59 63819212 B --- -- ---xx flac 0.4894 ralph2010-03-14d02t05.flac 5:01.28 53162300 B --- -- ---xx flac 0.5405 ralph2010-03-14d02t06.flac 1:18.39 13850972 B --- -- ---xx flac 0.3375 ralph2010-03-14d02t07.flac 6:30.66 68951276 B --- -- ---xx flac 0.4526 ralph2010-03-14d02t08.flac 6:14.62 66119468 B --- -- ---xx flac 0.5030 ralph2010-03-14d02t09.flac 8:00.45 84777884 B --- -- ---xx flac 0.5066 ralph2010-03-14d02t10.flac 1:26.14 15203372 B --- -- ---xx flac 0.4009 ralph2010-03-14d02t11.flac 118:06.23 1250025640 B 0.4847 (26 files)
mo:performer
event:place
skos:prefLabel
  • Ralph Roddenbery Band Live at Washington Park on 2010-03-14
rdfs:seeAlso
etree:source
  • Schoeps CCM4V'S(din)>Lunatec V2>Benchmark AD2K> Sound Devices 722 (24/48)
event:time
rdf:type
etree:uploader
  • capt.krinklebeinIII@yahoo.com