PropertyValue
etree:date
  • 2012-10-19
etree:description
  • 1. intro 2. Police Helicopters Over Brooklyn 3. I'm Not Surprised 4. Bomb Me 5. Billy the Eagle 6. Mr. Hanalei 7. Last December 8. Alligator Swamp 9. All Reality Has Changed 10. Rock n' Roll Forever 11. The Millipede/Who'll Stop the Beggar 12. band intros & keyboard demo 13. Zen Magic Marker 14. Fireflies on the 4th of July 15. Dig 16. Jesse Tenser 17. The Door 18. A Better Place 19. banter - Tommy Orrico, Cheese, silly covers 20. People in the Clouds 21. Carbondale 22. Stranglehold 23. Cross the Cloud 24. The Diamond 25. Build This House 26. encore break 27. go to your room intro 28. Go to Your Room
event:hasSubEvent
etree:id
  • SOU2012-10-19
etree:keyword
  • 24-bit
  • SBD + AUD recording
  • TSOMFU
  • live concert
etree:lineage
  • 24/48 files > Performer > .WAV > Audacity > .WAVs > xACT > .FLACs @24/48
etree:notes
  • First of two nights at the Popcorn, second night is here: http://archive.org/details/SOU2012-10-20 The Diamond - Build This House (HD720 video on Youtube) Who'll Stop The Beggar (HD720 video on Youtube) People In The Clouds - Carbondale (HD720 video on Youtube) SHNTOOL LEN: length expanded size cdr WAVE problems fmt ratio filename 0:14.586 4200884 B cxx -- ---xx flac 0.5592 SOU2012-10-19t01.flac 4:11.381 72397874 B cxx -- ---xx flac 0.7624 SOU2012-10-19t02.flac 4:29.058 77488718 B cxx -- ---xx flac 0.7843 SOU2012-10-19t03.flac 2:23.909 41445716 B cxx -- ---xx flac 0.7964 SOU2012-10-19t04.flac 3:16.082 56471540 B cxx -- ---xx flac 0.7365 SOU2012-10-19t05.flac 3:10.144 54761552 B cxx -- ---xx flac 0.7895 SOU2012-10-19t06.flac 3:19.501 57456218 B cxx -- ---xx flac 0.7617 SOU2012-10-19t07.flac 14:02.182 242548418 B cxx -- ---xx flac 0.7653 SOU2012-10-19t08.flac 6:00.898 103938536 B cxx -- ---xx flac 0.7616 SOU2012-10-19t09.flac 4:14.620 73330472 B cxx -- ---xx flac 0.7348 SOU2012-10-19t10.flac 5:36.013 96771782 B cxx -- ---xx flac 0.7336 SOU2012-10-19t11.flac 2:39.641 45976610 B cxx -- ---xx flac 0.5844 SOU2012-10-19t12.flac 3:44.199 64569380 B cxx -- ---xx flac 0.7438 SOU2012-10-19t13.flac 5:11.712 89773046 B cxx -- ---xx flac 0.7330 SOU2012-10-19t14.flac 4:08.303 71511266 B cxx -- ---xx flac 0.7805 SOU2012-10-19t15.flac 7:20.452 126850292 B cxx -- ---xx flac 0.7236 SOU2012-10-19t16.flac 5:18.963 91861424 B cxx -- ---xx flac 0.7663 SOU2012-10-19t17.flac 7:30.996 129886880 B cxx -- ---xx flac 0.7621 SOU2012-10-19t18.flac 4:14.550 73310564 B cxx -- ---xx flac 0.5651 SOU2012-10-19t19.flac 2:43.940 47214890 B cxx -- ---xx flac 0.7729 SOU2012-10-19t20.flac 3:53.420 67225064 B cxx -- ---xx flac 0.6936 SOU2012-10-19t21.flac 3:07.793 54084344 B cxx -- ---xx flac 0.6494 SOU2012-10-19t22.flac 3:22.216 58238246 B cxx -- ---xx flac 0.7341 SOU2012-10-19t23.flac 13:28.043 232716548 B cxx -- ---xx flac 0.7578 SOU2012-10-19t24.flac 6:02.961 104532758 B cxx -- ---xx flac 0.7637 SOU2012-10-19t25.flac 2:24.091 41498282 B cxx -- ---xx flac 0.5766 SOU2012-10-19t26.flac 1:07.138 19335710 B cxx -- ---xx flac 0.5681 SOU2012-10-19t27.flac 9:21.931 161836292 B cxx -- ---xx flac 0.7553 SOU2012-10-19t28.flac 136:38.722 2361233306 B 0.7382 (28 files) -~-~-~-~-~-~-~-~-~-~-~-~-~-~-~-~-~-~-~-~-~-~-~-~-~- The Soundscape Preservation Society (Founded 1991) http://www.iamtypingwithonefinger.com/SPS.html -~-~-~-~-~-~-~-~-~-~-~-~-~-~-~-~-~-~-~-~-~-~-~-~-~-
mo:performer
event:place
skos:prefLabel
  • The Sound of Urchin Live at Popcorn Tavern on 2012-10-19
rdfs:seeAlso
etree:source
  • SBD + AUD mix @24/48
event:time
rdf:type
etree:uploader
  • acffhmorst@gmail.com