PropertyValue
etree:date
  • 2012-10-20
etree:description
  • 01. Space Station (aborted) 02. People In The Clouds 03. Build This House 04. Go To Your Room 05. Space Station (On the 4, 5 & 6) 06. Zen Magic Marker 07. Fireflies On The 4th of July 08. Mr Hanalei 09. Dracula Bite 10. The Door 11. Don't Walk Me Down That Road 12. Last December 13. Police Helicopters Over Brooklyn 14. Oh My God 15. Quiz Show Spy 16. banter- band intros, kickstarters, & not being a cover band 17. White Dove 18. Dig 19. The Diamond 20. The Millipede/Who'll Stop The Beggar
event:hasSubEvent
etree:id
  • SOU2012-10-20
etree:keyword
  • 24-bit
  • SBD + AUD recording
  • TSOMFU
  • live concert
etree:lineage
  • 24/48 files > Performer > .WAV > Audacity > .WAVs > xACT > .FLACs @24/48
etree:notes
  • Second of two nights at the Popcorn, first night is here: http://archive.org/details/SOU2012-10-19 SHNTOOL LEN: length expanded size cdr WAVE problems fmt ratio filename 1:00.030 17288582 B cxx -- ---xx flac 0.7364 SOU2012-10-20t01.flac 2:52.392 49648964 B cxx -- ---xx flac 0.7854 SOU2012-10-20t02.flac 6:42.630 115957550 B cxx -- ---xx flac 0.7753 SOU2012-10-20t03.flac 6:27.875 111708086 B cxx -- ---xx flac 0.7828 SOU2012-10-20t04.flac 11:51.101 204797126 B cxx -- ---xx flac 0.7612 SOU2012-10-20t05.flac 4:05.592 70730642 B cxx -- ---xx flac 0.7577 SOU2012-10-20t06.flac 4:35.937 79469990 B cxx -- ---xx flac 0.7667 SOU2012-10-20t07.flac 3:16.373 56555564 B cxx -- ---xx flac 0.7713 SOU2012-10-20t08.flac 4:52.265 84172304 B cxx -- ---xx flac 0.7435 SOU2012-10-20t09.flac 4:41.072 80948864 B cxx -- ---xx flac 0.7841 SOU2012-10-20t10.flac 4:44.967 82070630 B cxx -- ---xx flac 0.7717 SOU2012-10-20t11.flac 7:10.697 124040714 B cxx -- ---xx flac 0.7710 SOU2012-10-20t12.flac 3:57.013 68259656 B cxx -- ---xx flac 0.7190 SOU2012-10-20t13.flac 7:29.366 129417410 B cxx -- ---xx flac 0.7881 SOU2012-10-20t14.flac 8:36.422 148729460 B cxx -- ---xx flac 0.7679 SOU2012-10-20t15.flac 6:34.024 113478980 B cxx -- ---xx flac 0.5869 SOU2012-10-20t16.flac 4:46.986 82651976 B cxx -- ---xx flac 0.7450 SOU2012-10-20t17.flac 4:33.257 78698126 B cxx -- ---xx flac 0.7584 SOU2012-10-20t18.flac 10:12.002 176256698 B cxx -- ---xx flac 0.7526 SOU2012-10-20t19.flac 5:24.513 93459860 B cxx -- ---xx flac 0.7168 SOU2012-10-20t20.flac 113:54.515 1968341182 B 0.7524 (20 files) -~-~-~-~-~-~-~-~-~-~-~-~-~-~-~-~-~-~-~-~-~-~-~-~-~- The Soundscape Preservation Society (Founded 1991) http://www.iamtypingwithonefinger.com/SPS.html -~-~-~-~-~-~-~-~-~-~-~-~-~-~-~-~-~-~-~-~-~-~-~-~-~-
mo:performer
event:place
skos:prefLabel
  • The Sound of Urchin Live at Popcorn Tavern on 2012-10-20
rdfs:seeAlso
etree:source
  • SBD + AUD mix @24/48
event:time
rdf:type
etree:uploader
  • acffhmorst@gmail.com