PropertyValue
etree:date
  • 2001-10-05
etree:description
  • 01 //Zen Magic Marker 02 Fearless Vampire Killers > 03 B-ILL Solo > 04 Quiz Show Spy 05 The Perfect Storm 06 The Millipede 07 Let It Rain 08 Hank's on The Moon 09 Green Green Gold
event:hasSubEvent
etree:id
  • SoundOfUrchin2001-10-05
etree:lineage
  • DAT > > HHB PRO CDR 830 > CDR(1) > EAC > Traders Little Helper (FLAC 8)
etree:notes
  • Opening for Tenacious D The D's set is here: www.archive.org/details/tend2001-10-05.shnf SHNTOOL: length expanded size cdr WAVE problems fmt ratio filename 0:51.54 9123452 B --- -- ---xx SOU-2001-10-05t01.flac 3:33.34 37653212 B --- -- ---xx SOU-2001-10-05t02.flac 0:28.65 5092124 B --- -- ---xx SOU-2001-10-05t03.flac 6:10.49 65383292 B --- -- ---xx SOU-2001-10-05t04.flac 1:40.70 17804684 B --- -- ---xx SOU-2001-10-05t05.flac 2:38.53 27995900 B --- -- ---xx SOU-2001-10-05t06.flac 5:07.46 54263036 B --- -- ---xx SOU-2001-10-05t07.flac 1:19.16 13973276 B --- -- ---xx SOU-2001-10-05t08.flac 8:39.27 91615148 B --- -- ---xx SOU-2001-10-05t09.flac 30:30.39 322904124 B 0.4850 (9 files)
mo:performer
event:place
skos:prefLabel
  • The Sound of Urchin Live at Riviera Theatre on 2001-10-05
rdfs:seeAlso
etree:source
  • SBD > Casio DA-7 > DAT
event:time
rdf:type
etree:uploader
  • acffhmorst@gmail.com