PropertyValue
etree:date
  • 2008-11-11
etree:description
  • Disc 1 (48:29.67) 01. pre intro 02. intro 03. Jesse Tenser 04. Dig 05. Shake The Magic 8-Ball 06. Rock And Roll Forever 07. Thank You For The Flowers 08. Go To Your Room 09. 10. banter - he said stool 11. Last December 12. Dracula Bite 13. Quiz Show Spy 14. banter - just a baby urchin 15. 16. Disc 2 (51:25.63) 17. Police Helicopters 4:11 18. Zen Magic Marker 4:11 19. Gates Of Steel 3:53 20. band intros - setlist bargaining 5:43 21. YYZ 4:13 22. banter - we can play anything now! 1:03 23. Mr Hanalai 3:30 24. Alligator 10:02 25. banter - totally cool 1:16 26. Track 10 3:52 27. recordists' signout 1:19
event:hasSubEvent
etree:id
  • SoundOfUrchin2008-11-11.matrix
etree:keyword
  • Live Concert
  • matrix of soundboard and audience sources
etree:lineage
  • WAV > Audacity 1.2.6a > FLAC
etree:notes
  • Sound Of Urchin Tuesday, November 11, 2008 Frequency Madison WI, USA Source: Neumann KM140's (shock-mounted ORTF pair, clamped on B-Ill's stand @6') > Beyer MV100 > Zoom H2 @24-bit/48KHz Allen & Heath Mixwizard 16 SBD 1/4" main outs > Sony PCM-M1 > DAT @16-bit/48KHz Transfer: DAT > Sony PCM-M1 > S/Pdif > Audiomedia III PCI card > Powermac G3/266 > Protools 4.1.1 > AIFF > Powermac G4 MDD/ Dual 1.42 Mix: 16-bit SBD AIFF + 24-bit audience WAV > Audacity 1.2.6 SBD AIFF > Change Speed plugin at .012% to match 24-bit audience WAV, files lined up by ear/eye, gain of SBD set to -6dB, then the mix was output as WAV @48KHz/24-bit, then converted to 16-bit/44.1KHz with triangle dither > AIFF > Audacity 1.2.6 (tracking in 1/75 second increments) > AIFF's > xACT 1.64 (flac level 8) > FLAC16 SHNTOOL: length expanded size cdr WAVE problems fmt ratio filename 0:56.58 10014860 B --- -- ---xx SoundOfUrchin2008-11-11-MTX-d1t01.flac 0:34.44 6101132 B --- -- ---xx SoundOfUrchin2008-11-11-MTX-d1t02.flac 5:40.07 59992508 B --- -- ---xx SoundOfUrchin2008-11-11-MTX-d1t03.flac 4:11.19 44321132 B --- -- ---xx SoundOfUrchin2008-11-11-MTX-d1t04.flac 3:13.39 34136972 B --- -- ---xx SoundOfUrchin2008-11-11-MTX-d1t05.flac 3:17.31 34823756 B --- -- ---xx SoundOfUrchin2008-11-11-MTX-d1t06.flac 4:52.16 51546476 B --- -- ---xx SoundOfUrchin2008-11-11-MTX-d1t07.flac 4:27.57 47232908 B --- -- ---xx SoundOfUrchin2008-11-11-MTX-d1t08.flac 1:06.48 11755340 B --- -- ---xx SoundOfUrchin2008-11-11-MTX-d1t09.flac 3:19.69 35265932 B --- -- ---xx SoundOfUrchin2008-11-11-MTX-d1t10.flac 0:30.23 5346140 B --- -- ---xx SoundOfUrchin2008-11-11-MTX-d1t11.flac 4:05.33 43295660 B --- -- ---xx SoundOfUrchin2008-11-11-MTX-d1t12.flac 0:48.47 8577788 B --- -- ---xx SoundOfUrchin2008-11-11-MTX-d1t13.flac 9:30.50 100665644 B --- -- ---xx SoundOfUrchin2008-11-11-MTX-d1t14.flac 1:54.51 20229596 B --- -- ---xx SoundOfUrchin2008-11-11-MTX-d1t15.flac 4:10.71 44267036 B --- -- ---xx SoundOfUrchin2008-11-11-MTX-d2t01.flac 4:10.52 44222348 B --- -- ---xx SoundOfUrchin2008-11-11-MTX-d2t02.flac 3:52.65 41077724 B --- -- ---xx SoundOfUrchin2008-11-11-MTX-d2t03.flac 5:43.37 60592268 B --- -- ---xx SoundOfUrchin2008-11-11-MTX-d2t04.flac 4:12.67 44610428 B --- -- ---xx SoundOfUrchin2008-11-11-MTX-d2t05.flac 1:02.54 11063852 B --- -- ---xx SoundOfUrchin2008-11-11-MTX-d2t06.flac 3:29.58 37004060 B --- -- ---xx SoundOfUrchin2008-11-11-MTX-d2t07.flac 10:01.74 106190492 B --- -- ---xx SoundOfUrchin2008-11-11-MTX-d2t08.flac 1:16.01 13408796 B --- -- ---xx SoundOfUrchin2008-11-11-MTX-d2t09.flac 3:51.18 40790780 B --- -- ---xx SoundOfUrchin2008-11-11-MTX-d2t10.flac 8:13.62 87111068 B --- -- ---xx SoundOfUrchin2008-11-11-MTX-d2t11.flac 98:36.26 1043644696 B 0.5428 (26 files) -=-=-=-=-=-=-=-=-=-=-=-=-=-=-=-=-=-=-=-=-=-=-=-=- Soundscape Preservation Society Founded 1991 http://www.iamtypingwithonefinger.com/SPS.html -=-=-=-=-=-=-=-=-=-=-=-=-=-=-=-=-=-=-=-=-=-=-=-=-
mo:performer
event:place
skos:prefLabel
  • The Sound of Urchin Live at Frequency on 2008-11-11
rdfs:seeAlso
etree:source
  • SBD + Audience Matrix
event:time
rdf:type
etree:uploader
  • acffhmorst@gmail.com