PropertyValue
etree:date
  • 2009-10-25
etree:description
  • 1 - nothing (pre-show) 2 - tuning 3 - tuning 4 - Emptiness Has Come Over Me (?) 5 - Dig 6 - Shake The Magic Eightball 7 - Don't Walk Me Down That Road 8 - Alligator Swamp 9 - Thank You For The Flowers 10 - Who'll Stop The Beggar 11 - Band Intros 12 - Mock Highway To Hell 13 - Police Helicopters 14 - Fearless Vampire Killers 15 - Go To Your Room
event:hasSubEvent
etree:id
  • SoundOfUrchin2009-10-25
etree:keyword
  • Live Concert
  • audience recording
etree:lineage
  • WAV > Audacity 1.2.6a > Dither to 16/44.1 > xACT 1.64 > FLAC level 8
etree:notes
  • Thanks to chkn_mcnukl for the setlist! Too bad you didn't make the show, but we do what we can to bring it to ya!! SHNTOOL: length expanded size cdr WAVE problems fmt ratio filename 4:11.50 44394044 B --- -- ---xx SoundOfUrchin2009-10-25t01.flac 4:48.60 50944364 B --- -- ---xx SoundOfUrchin2009-10-25t02.flac 2:55.40 30964124 B --- -- ---xx SoundOfUrchin2009-10-25t03.flac 5:48.70 61551884 B --- -- ---xx SoundOfUrchin2009-10-25t04.flac 4:03.60 43006364 B --- -- ---xx SoundOfUrchin2009-10-25t05.flac 4:03.58 43001660 B --- -- ---xx SoundOfUrchin2009-10-25t06.flac 4:29.27 47515148 B --- -- ---xx SoundOfUrchin2009-10-25t07.flac 11:05.40 117400124 B --- -- ---xx SoundOfUrchin2009-10-25t08.flac 4:58.40 52661324 B --- -- ---xx SoundOfUrchin2009-10-25t09.flac 4:11.71 44443436 B --- -- ---xx SoundOfUrchin2009-10-25t10.flac 2:23.44 25328732 B --- -- ---xx SoundOfUrchin2009-10-25t11.flac 2:23.06 25239356 B --- -- ---xx SoundOfUrchin2009-10-25t12.flac 4:13.16 44666876 B --- -- ---xx SoundOfUrchin2009-10-25t13.flac 4:28.12 47303468 B --- -- ---xx SoundOfUrchin2009-10-25t14.flac 5:16.01 55744796 B --- -- ---xx SoundOfUrchin2009-10-25t15.flac 69:21.70 734165700 B 0.5955 (15 files) ~=~=~=~=~=~=~=~=~=~=~=~=~=~=~=~=~=~=~=~=~=~=~=~=~ The Soundscape Preservation Society (Founded 1991) http://www.iamtypingwithonefinger.com/SPS.html ~=~=~=~=~=~=~=~=~=~=~=~=~=~=~=~=~=~=~=~=~=~=~=~=~
mo:performer
event:place
skos:prefLabel
  • The Sound of Urchin Live at Frequency on 2009-10-25
rdfs:seeAlso
etree:source
  • Neumann KM140's > Beyer MV100 > Zoom H2 @24-bit/48kHz WAV, mics on 8' stand FoB
event:time
rdf:type
etree:uploader
  • acffhmorst@gmail.com