PropertyValue
etree:date
  • 2008-08-23
etree:description
  • Set 1 01. One Reason 02. Papa's in the Backroom 03. Taught To Be Proud 04. Faced With Love 05. 7th Story 06. The Garden (Part II) 07. Incandescent Devil 08. Stick to the Shallows 09. Precious Stone - California Set 2 10. set 2 intro 11. Drink of Streams 12. Baseball > The Devil's Pay 13. Earth and Sky 14. These Two Chairs 15. Reservoir 16. Carter Hotel 17. Wet Spot > Rapture No Encore
event:hasSubEvent
etree:id
  • TeaLeafGreen2008-08-23.KM140
etree:keyword
  • Live Concert
  • University Of Wisconsin
  • all ages
  • free show
etree:lineage
  • WAV > Audacity 1.2.6 (boost levels, convert to 16-bit 44.1KHz, track in 1/75 second intervals) > AIFF files > xACT 1.64 > FLAC (level 8 compression)
etree:notes
  • Saturday, August 23, 2008 SHNTOOL: length expanded size cdr WAVE problems fmt ratio filename 7:37.26 80675996 B --- -- ---xx TeaLeafGreen2008-08-23-KM140-d1t01.flac 7:48.01 82557596 B --- -- ---xx TeaLeafGreen2008-08-23-KM140-d1t02.flac 9:24.57 99623708 B --- -- ---xx TeaLeafGreen2008-08-23-KM140-d1t03.flac 5:20.58 56584460 B --- -- ---xx TeaLeafGreen2008-08-23-KM140-d1t04.flac 5:18.39 56186972 B --- -- ---xx TeaLeafGreen2008-08-23-KM140-d1t05.flac 3:38.11 38481116 B --- -- ---xx TeaLeafGreen2008-08-23-KM140-d1t06.flac 6:38.12 70235468 B --- -- ---xx TeaLeafGreen2008-08-23-KM140-d1t07.flac 3:56.44 41733932 B --- -- ---xx TeaLeafGreen2008-08-23-KM140-d1t08.flac 15:58.04 169000652 B --- -- ---xx TeaLeafGreen2008-08-23-KM140-d1t09.flac 0:33.27 5884748 B --- -- ---xx TeaLeafGreen2008-08-23-KM140-d2t01.flac 5:20.47 56558588 B --- -- ---xx TeaLeafGreen2008-08-23-KM140-d2t02.flac 18:58.56 200874956 B --- -- ---xx TeaLeafGreen2008-08-23-KM140-d2t03.flac 14:51.54 157299452 B --- -- ---xx TeaLeafGreen2008-08-23-KM140-d2t04.flac 9:40.03 102319100 B --- -- ---xx TeaLeafGreen2008-08-23-KM140-d2t05.flac 3:38.56 38586956 B --- -- ---xx TeaLeafGreen2008-08-23-KM140-d2t06.flac 7:47.70 82543484 B --- -- ---xx TeaLeafGreen2008-08-23-KM140-d2t07.flac 6:31.28 69038300 B --- -- ---xx TeaLeafGreen2008-08-23-KM140-d2t08.flac 133:02.68 1408185484 B 0.5163 (17 files) -=-=-=-=-=-=-=-=-=-=-==-=--=-=-=-==-=-=---=-=-=-=-=-=-= Soundscape Preservation Society Founded 1991 http://www.iamtypingwithonefinger.com/SPS.html -=-=-=-=-=-=-=-=-=-=-==-=--=-=-=-==-=-=---=-=-=-=-=-=-=
mo:performer
event:place
skos:prefLabel
  • Tea Leaf Green Live at UW Memorial Union Terrace on 2008-08-23
rdfs:seeAlso
etree:source
  • Neumann KM140's (ORTF pair) > Beyer MV100 > Zoom H2
event:time
rdf:type
etree:uploader
  • acffhmorst@gmail.com