PropertyValue
etree:date
  • 2007-09-07
etree:description
  • 01. soundcheck & intro 02. News Blackout 03. Broke My Heart 04. Burgundy Red * w/ Russell Pollard on drums 05. Lexington Jail 06. string change break 07. Poor, Poor LA 08. Stormy 09. Festival Song 10. music over PA
event:hasSubEvent
etree:id
  • TimEaston2007-09-07
etree:keyword
  • Camper Van Beethoven
  • Cracker
  • Crampout
  • Live Concert
  • Pitown
  • indoor stage
etree:lineage
  • MD > MD-R70 > PCM-M1 > DAT @48KHz, DAT > Sony PCM-M1 > analog @ 48KHz > Audiomedia III PCI card > Powermac G3/266 > Protools 4.1.1 (convert to 44.1 KHz at "best" mode) > AIFF > Powermac G4/MDD-Dual 1.42 > Audacity 1.2.6 (tracking in 1/75 second intervals) > AIFF files > xACT 1.59 > FLAC (level 8)
etree:notes
  • Saturday, September 8, 2007 Pappy and Harriet's Pioneertown Palace - indoor stage 3rd Annual Cracker Camper Van Beethoven Family Reunion Campout notes: http://www.timeaston.com/ http://www.myspace.com/timeaston http://www.myspace.com/3rdannualcampout http://www.myspace.com/pappyandharriets http://www.crackersoul.com/campout shntool results: length expanded size cdr WAVE problems filename 2:08.36 22663916 --- -- ---xx TimEaston2007-09-07t01.flac 3:42.19 39205532 --- -- ---xx TimEaston2007-09-07t02.flac 5:39.58 59936060 --- -- ---xx TimEaston2007-09-07t03.flac 3:30.37 37131068 --- -- ---xx TimEaston2007-09-07t04.flac 5:06.66 54133676 --- -- ---xx TimEaston2007-09-07t05.flac 2:02.21 21570236 --- -- ---xx TimEaston2007-09-07t06.flac 5:28.13 57889820 --- -- ---xx TimEaston2007-09-07t07.flac 6:11.73 65616140 --- -- ---xx TimEaston2007-09-07t08.flac 7:52.04 83270252 --- -- ---xx TimEaston2007-09-07t09.flac 3:45.02 39693820 -b- -- ---xx TimEaston2007-09-07t10.flac 45:27.29 481110520 B (totals for 10 files, 0.3607 overall compression ratio) -=-=-=-=-=-=-=-=-=-=-=-=-=-=-=-=-=-=-=-=-=-=-=-=- Soundscape Preservation Society Founded 1991 http://www.iamtypingwithonefinger.com/SPS.html -=-=-=-=-=-=-=-=-=-=-=-=-=-=-=-=-=-=-=-=-=-=-=-=-
mo:performer
event:place
skos:prefLabel
  • Tim Easton Live at Pappy & Harriet's Pioneertown Palace on 2007-09-07
rdfs:seeAlso
etree:source
  • Sony MTL-F96 mic > Sony MZ-R70 minidisc (dynamic omni mounted on screw hook on ceiling, FOB, rt side)
event:time
rdf:type
etree:uploader
  • acffhmorst@gmail.com