PropertyValue
etree:date
  • 2009-06-04
etree:description
  • Disc 1 (66:04.72) 01 (intro) 02 Burgundy Red 03 Black Dog 04 Baltimore 05 True Ways 06 Next To You 07 News Blackout 08 Daily Life 09 (song about TW's house) 10 Lexington Jail 11 Stormy 12 Dear Old Song and Dance 13 The Festival Song Disc 2 (77:15.49) 01 (intro) 02 Special 20 03 Broke My Heart 04 In Love With You 05 Jesus, Protect Me From Your Followers 06 Just Like Home 07 The Young Girls 08 Cigarettes and Whiskey 09 Stone's Throw Away 10 Carry Me 11 Tucumcari 12 The Weight of Changing Everything 13 Beat The Band 14 Bad Florida (aborted) 15 Poor, Poor LA 16 Northbound 17 Don't Walk Alone
event:hasSubEvent
etree:id
  • TimEaston2009-06-04.matrix
etree:keyword
  • House concert
  • Live concert
  • dmonkey
etree:lineage
  • Adobe Audition 3.0 >> normalize >> MC930/SBD mix >> Ozone 4 VST >> multiband exciter (slight high freq boost) >> loudness maximizer >> tiny bit of stereo widening >> dither to 16 bit (MBIT+ algorithm)
etree:notes
  • Tim Easton June 4, 2009 House concert @ "The 7th Street Station", Reno, NV, USA SBD + Beyerdynamic MC930's (DINa, 3' high, DFC) >> R-44 (Oade Concert Mod) >> WAV @ 24bit/44.1KHz Note: I ran an Aerco MP-2 between the mics and R-44 for Set 1. Mics went directly into the R-44 for Set 2. Adobe Audition 3.0 >> normalize >> MC930/SBD mix >> Ozone 4 VST >> multiband exciter (slight high freq boost) >> loudness maximizer >> tiny bit of stereo widening >> dither to 16 bit (MBIT+ algorithm) http://www.timeaston.com/ http://www.myspace.com/timeaston SHNTOOL: length expanded size cdr WAVE problems fmt ratio filename 3:06.17 32850428 B --- -- ---xx TimEaston2009-06-04d1t01.flac 4:03.50 42982844 B --- -- ---xx TimEaston2009-06-04d1t02.flac 6:14.09 65994812 B --- -- ---xx TimEaston2009-06-04d1t03.flac 2:59.66 31730876 B --- -- ---xx TimEaston2009-06-04d1t04.flac 3:47.72 40212188 B --- -- ---xx TimEaston2009-06-04d1t05.flac 5:57.26 63035996 B --- -- ---xx TimEaston2009-06-04d1t06.flac 8:48.23 93193340 B --- -- ---xx TimEaston2009-06-04d1t07.flac 3:48.16 40256876 B --- -- ---xx TimEaston2009-06-04d1t08.flac 5:04.50 53743244 B --- -- ---xx TimEaston2009-06-04d1t09.flac 6:27.10 68290364 B --- -- ---xx TimEaston2009-06-04d1t10.flac 5:40.04 59985452 B --- -- ---xx TimEaston2009-06-04d1t11.flac 5:56.48 62911340 B --- -- ---xx TimEaston2009-06-04d1t12.flac 4:10.56 44230780 B -b- -- ---xx TimEaston2009-06-04d1t13.flac 0:38.00 6703244 B --- -- ---xx TimEaston2009-06-04d2t01.flac 4:27.11 47124716 B --- -- ---xx TimEaston2009-06-04d2t02.flac 4:12.17 44492828 B --- -- ---xx TimEaston2009-06-04d2t03.flac 4:11.27 44339948 B --- -- ---xx TimEaston2009-06-04d2t04.flac 5:51.66 62071676 B --- -- ---xx TimEaston2009-06-04d2t05.flac 5:06.24 54034892 B --- -- ---xx TimEaston2009-06-04d2t06.flac 4:31.62 47950268 B --- -- ---xx TimEaston2009-06-04d2t07.flac 4:44.07 50114108 B --- -- ---xx TimEaston2009-06-04d2t08.flac 4:16.70 45323084 B --- -- ---xx TimEaston2009-06-04d2t09.flac 5:00.06 52934156 B --- -- ---xx TimEaston2009-06-04d2t10.flac 2:44.37 29016668 B --- -- ---xx TimEaston2009-06-04d2t11.flac 4:52.39 51600572 B --- -- ---xx TimEaston2009-06-04d2t12.flac 4:21.41 46136876 B --- -- ---xx TimEaston2009-06-04d2t13.flac 3:00.01 31754396 B --- -- ---xx TimEaston2009-06-04d2t14.flac 8:30.28 90029900 B --- -- ---xx TimEaston2009-06-04d2t15.flac 5:37.72 59616188 B --- -- ---xx TimEaston2009-06-04d2t16.flac 5:08.66 54486276 B -b- -- ---xx TimEaston2009-06-04d2t17.flac 143:20.46 1517148336 B 0.4694 (30 files)
mo:performer
event:place
skos:prefLabel
  • Tim Easton Live at The 7th Street Station on 2009-06-04
rdfs:seeAlso
etree:source
  • SBD + Beyerdynamic MC930's (DINa, 3' high, DFC) >> R-44 (Oade Concert Mod) >> WAV @ 24bit/44.1KHz
event:time
rdf:type
etree:uploader
  • acffhmorst@gmail.com