PropertyValue
etree:date
  • 1999-10-27
etree:description
  • Setlist 1. Faith Inside > 2. Fisherman's Blues 3. Desire 4. All That We Fear 5. Whereabouts Unknown 6. Oh Me, Oh My 7. Bucket Full of Rain 8. The Bee Song 9. Big World* 10. Do What You Do 11. Build a Road 12. Think About It** 13. The Contender** 14. Great Big Sky** 15. Lay My Burden Down** 16. It's a Goodbye World+ 17. Encore Break Encore 18. What Your Days Are Like 19. High on a Mountain > 20. Penny For YOur Thoughts 21. Encore Break Encore 2 22. Color of a Thunderbolt# Notes: * With Jon Trama from Rockett Band on Guitar ** With Dan and Adam from Rockett Band on Guitar + With Stewart Lewis # With Stewart Lewis and Spooky Daley 01. Faith Inside > 02. Fisherman's Blues 03. Desire 04. All That We Fear 05. Whereabouts Unknown 06. Oh Me, Oh My 07. Bucket Full of Rain 08. The Bee Song 09. Big World 10. Do What You Do 11. Build a Road 12. Think About it 13. The Contender 14. Great Big Sky 15. Lay My Burden Down 16. It's a Goodbye World 17. Encore Break 18. What Your Days Are Like 19. High on a Mountain > 20. Penny For Your Thoughts 21. Encore Break 22. Color of a Thunderbolt
event:hasSubEvent
etree:id
  • aj1999-10-27.flac1644
etree:lineage
  • Tascam DA-20 MKII > Tascam HD-P2 > Sony Soundforge 8.0 (44.1) > CD Wave > Flac
etree:notes
  • Shntool Output: length expanded size cdr WAVE problems fmt ratio filename 7:20.00 77616044 B --- -- ---xx flac 0.5075 aj1999-10-27s1t01.flac 4:59.14 52776572 B --- -- ---xx flac 0.6289 aj1999-10-27s1t02.flac 10:15.42 108584828 B --- -- ---xx flac 0.5653 aj1999-10-27s1t03.flac 3:38.03 38462300 B --- -- ---xx flac 0.5779 aj1999-10-27s1t04.flac 7:02.24 74497292 B --- -- ---xx flac 0.5374 aj1999-10-27s1t05.flac 4:25.74 46920092 B --- -- ---xx flac 0.5900 aj1999-10-27s1t06.flac 5:48.27 61450748 B --- -- ---xx flac 0.4698 aj1999-10-27s1t07.flac 3:27.74 36688892 B --- -- ---xx flac 0.4121 aj1999-10-27s1t08.flac 5:27.74 57856892 B --- -- ---xx flac 0.4859 aj1999-10-27s1t09.flac 4:18.20 45558284 B --- -- ---xx flac 0.5440 aj1999-10-27s1t10.flac 9:04.72 96130988 B --- -- ---xx flac 0.5289 aj1999-10-27s1t11.flac 5:04.70 53790284 B --- -- ---xx flac 0.5576 aj1999-10-27s1t12.flac 5:42.13 60359420 B --- -- ---xx flac 0.5339 aj1999-10-27s1t13.flac 5:26.20 57553484 B --- -- ---xx flac 0.5293 aj1999-10-27s1t14.flac 8:38.10 91398764 B --- -- ---xx flac 0.5445 aj1999-10-27s1t15.flac 4:48.73 50974940 B --- -- ---xx flac 0.5602 aj1999-10-27s1t16.flac 2:39.11 28073516 B --- -- ---xx flac 0.3871 aj1999-10-27s1t17.flac 4:45.51 50393996 B --- -- ---xx flac 0.3876 aj1999-10-27s1t18.flac 3:28.74 36865292 B --- -- ---xx flac 0.5546 aj1999-10-27s1t19.flac 5:13.39 55304972 B --- -- ---xx flac 0.5200 aj1999-10-27s1t20.flac 1:53.65 20086124 B --- -- ---xx flac 0.4320 aj1999-10-27s1t21.flac 5:53.46 62377436 B --- -- ---xx flac 0.5137 aj1999-10-27s1t22.flac 119:23.71 1263721160 B 0.5246 (22 files)
mo:performer
event:place
skos:prefLabel
  • Acoustic Junction Live at The Paradise Rock Club on 1999-10-27
rdfs:seeAlso
etree:source
  • AKG C-1000 (hyper) > Bevery MV-100 > DA-P1 (48.0)
event:time
rdf:type
etree:uploader
  • patrickprice@comcast.net