PropertyValue
etree:date
  • 2008-03-08
etree:description
  • Benevento-Russo Duo March 8, 2008 Chickee Hut - Langerado Festival Big Cypress Seminole Indian Reservation, Florida *** THIS IS A 16-BIT FILESET INTENDED FOR AUDIO CD *** SOURCE: studio projects LSD2 (card, XY) > busman t-mod edirol r4 (24/96) PROCESSING: soundforge 8.0 (tracking, fades, resample, dither) > flac 1.2.0a 01 soundcheck 02 Play, Pause, Stop 03 Something For Rockets ^ 04 Hey Hey Hey 05 Sunny's Song 06 Powder 07 Soba 08 Echo Park 09 Blood, Not Sap 10 Welcome Red 11 Becky
event:hasSubEvent
etree:id
  • beneventorussoduo2008-03-08.lsd2.flac16
etree:lineage
  • soundforge 8.0 (tracking, fades, resample, dither) > flac 1.2.0a
etree:notes
  • length expanded size cdr WAVE problems fmt ratio filename 7:02.30 74511404 B --- -- ---xx flac 0.4108 beneventorussoduo2008-03-08_t01.flac 9:50.60 104217164 B --- -- ---xx flac 0.5442 beneventorussoduo2008-03-08_t02.flac 7:27.00 78850844 B --- -- ---xx flac 0.5263 beneventorussoduo2008-03-08_t03.flac 5:27.37 57769868 B --- -- ---xx flac 0.5357 beneventorussoduo2008-03-08_t04.flac 4:52.38 51598220 B --- -- ---xx flac 0.5177 beneventorussoduo2008-03-08_t05.flac 5:13.22 55264988 B --- -- ---xx flac 0.5208 beneventorussoduo2008-03-08_t06.flac 6:57.23 73612940 B --- -- ---xx flac 0.5358 beneventorussoduo2008-03-08_t07.flac 3:49.45 40501484 B --- -- ---xx flac 0.5560 beneventorussoduo2008-03-08_t08.flac 3:35.07 37942508 B --- -- ---xx flac 0.5404 beneventorussoduo2008-03-08_t09.flac 8:34.38 90759020 B --- -- ---xx flac 0.4891 beneventorussoduo2008-03-08_t10.flac 8:06.53 85855100 B --- -- ---xx flac 0.5553 beneventorussoduo2008-03-08_t11.flac 70:56.53 750883540 B 0.5191 (11 files)
mo:performer
event:place
skos:prefLabel
  • Benevento/Russo Live at Chickee Hut - Langerado Festival on 2008-03-08
rdfs:seeAlso
etree:source
  • studio projects LSD2 (card, XY) > busman t-mod edirol r4 (24/96)
event:time
rdf:type
etree:uploader
  • sleepypedro@gmail.com