PropertyValue
etree:date
  • 1990-06-20
etree:description
  • intro Late in the Evening Blue Line Great Western Slide Gimme Some Lovin' Bertha tuning Women Are Smarter Playing In The Band jam NFA Lovelight encore break encore intro Along The Way outtro
event:hasSubEvent
etree:id
  • dixie1990-06-20-flac
etree:keyword
  • Live concert
  • Radford
  • VA
etree:lineage
  • MCAS > FLAC
etree:notes
  • Set 1 tape is broken- needs to be repaired, came loose at head leader set 2 intro Late in the Evening Blue Line Great Western Slide Gimme Some Lovin' > Bertha (5 "anymore's") tuning Women Are Smarter> Playing In The Band> (cut due to tape flip) jam> NFA > Lovelight encore break encore intro Along The Way outtro *Great Western Slide & Along the Way written by Blue Dixie & Bruce Siebert length expanded size cdr WAVE problems filename 2:51.59 30303212 --- -- ---xx dixie1999-06-20t01.flac 3:57.33 41884460 --- -- ---xx dixie1999-06-20t02.flac 7:15.35 76816364 --- -- ---xx dixie1999-06-20t03.flac 4:33.63 48305420 --- -- ---xx dixie1999-06-20t04.flac 6:16.01 66328796 --- -- ---xx dixie1999-06-20t05.flac 6:44.50 71383244 --- -- ---xx dixie1999-06-20t06.flac 2:02.29 21589052 --- -- ---xx dixie1999-06-20t07.flac 5:56.68 62958380 --- -- ---xx dixie1999-06-20t08.flac 7:25.57 78631464 -b- -- ---xx dixie1999-06-20t09.flac 0:51.23 9050540 --- -- ---xx dixie1999-06-20t10.flac 4:24.14 46602572 --- -- ---xx dixie1999-06-20t11.flac 6:06.02 64567148 --- -- ---xx dixie1999-06-20t12.flac 1:15.71 13397036 --- -- ---xx dixie1999-06-20t13.flac 0:50.13 8850620 --- -- ---xx dixie1999-06-20t14.flac 5:29.64 58186172 --- -- ---xx dixie1999-06-20t15.flac 0:37.59 6664560 -b- -- ---xx dixie1999-06-20t16.flac 66:39.40 705519040 B (totals for 16 files, 0.5867 overall compression ratio)
mo:performer
event:place
skos:prefLabel
  • Blue Dixie Live at Lucky's on 1990-06-20
rdfs:seeAlso
etree:source
  • MCAS
event:time
rdf:type
etree:uploader
  • acffhmorst@gmail.com