PropertyValue
etree:date
  • 2013-12-31
etree:description
  • Goosepimp Orchestra 2013-12-31 The Palladium Worcester, MA DPA 4011 > V3 Digital > R44 (24/96) SDHC Card > Sound Forge Pro 10.0 (Normalize, fades, resample iZotope 64-Bit SRC, dither iZotope MBIT+ Dither) > CD Wav (tracking) > TLH > Flac (level 8) DIN/ROC (right of FOH)/approx. 7' high Tags added in Foobar2000 Taped and Transferred by Brian V. 01. Kalimotxo 02. El Bassment 03. Kensho 04. Pranksta's Paradise 05. Feelin Good * 06. Flashbacks 07. Crumpkin 08. Roses (Outkast)
event:hasSubEvent
etree:id
  • goosepimp2013-12-31.dpa4011.flac16
etree:lineage
  • SDHC Card > Sound Forge Pro 10.0 (Normalize, fades, resample iZotope 64-Bit SRC, dither iZotope MBIT+ Dither) > CD Wav (tracking) > TLH > Flac (level 8)
etree:notes
  • * - ft. Anna Custodio (Bassnectar x Nina Simone) ***Support Bands That Allow Taping/Trading*** shntool output length expanded size cdr WAVE problems fmt ratio filename 4:14.39 44897372 B --- -- ---xx flac 0.5254 goosepimp20013-12-31s1t01.flac 4:42.67 49902428 B --- -- ---xx flac 0.5264 goosepimp20013-12-31s1t02.flac 6:56.44 73485932 B --- -- ---xx flac 0.5257 goosepimp20013-12-31s1t03.flac 9:24.12 99517868 B --- -- ---xx flac 0.5018 goosepimp20013-12-31s1t04.flac 4:08.00 43747244 B --- -- ---xx flac 0.4974 goosepimp20013-12-31s1t05.flac 13:34.23 143643740 B --- -- ---xx flac 0.5237 goosepimp20013-12-31s1t06.flac 14:55.60 158019164 B --- -- ---xx flac 0.5358 goosepimp20013-12-31s1t07.flac 6:00.08 63522860 B --- -- ---xx flac 0.5600 goosepimp20013-12-31s1t08.flac 63:56.28 676736608 B 0.5255 (8 files)
mo:performer
event:place
skos:prefLabel
  • Goosepimp Orchestra Live at The Palladium on 2013-12-31
rdfs:seeAlso
etree:source
  • DPA 4011 > V3 Digital > R44 (24/96)
event:time
rdf:type
etree:uploader
  • brianvaz@gmail.com