PropertyValue
etree:date
  • 2008-02-14
etree:description
  • Jake Shimabukuro February 14, 2008 Ram's Head Onstage Annapolis MD *** THIS IS A 24-BIT FILESET NOT INTENDED FOR AUDIO CD *** 01 intro 02 Let's Dance 03 Me & Shirley T 04 In My Life 05 Going To California 06 Time After Time 07 Sakura 08 Orange World 09 Dragon 10 Spain 11 Wes On 4 12 While My Guitar Gently Weeps 13 Third String 14 Crazy G
event:hasSubEvent
etree:id
  • jakeshimabukuro2008-02-14.mbho.flac24
etree:lineage
  • soundforge 8.0 (tracking, fades) > flac 1.2.0a
etree:notes
  • length expanded size cdr WAVE problems fmt ratio filename 0:50.837 29282348 B cxx -- ---xx flac 0.4867 jakeshimabukuro2008-02-14_mbho_t01.flac 7:35.808 262545452 B cxx -- ---xx flac 0.5093 jakeshimabukuro2008-02-14_mbho_t02.flac 7:09.312 247283756 B cxx -- ---xx flac 0.5141 jakeshimabukuro2008-02-14_mbho_t03.flac 4:25.173 152739884 B cxx -- ---xx flac 0.4676 jakeshimabukuro2008-02-14_mbho_t04.flac 5:46.283 199458860 B cxx -- ---xx flac 0.5071 jakeshimabukuro2008-02-14_mbho_t05.flac 5:45.429 198967340 B cxx -- ---xx flac 0.4733 jakeshimabukuro2008-02-14_mbho_t06.flac 4:30.144 155602988 B cxx -- ---xx flac 0.4728 jakeshimabukuro2008-02-14_mbho_t07.flac 4:58.112 171712556 B cxx -- ---xx flac 0.5235 jakeshimabukuro2008-02-14_mbho_t08.flac 3:27.339 119427116 B cxx -- ---xx flac 0.4767 jakeshimabukuro2008-02-14_mbho_t09.flac 5:51.616 202530860 B cxx -- ---xx flac 0.4934 jakeshimabukuro2008-02-14_mbho_t10.flac 5:31.264 190808108 B cxx -- ---xx flac 0.5233 jakeshimabukuro2008-02-14_mbho_t11.flac 9:48.779 339136556 B cxx -- ---xx flac 0.5017 jakeshimabukuro2008-02-14_mbho_t12.flac 6:17.557 217473068 B cxx -- ---xx flac 0.5490 jakeshimabukuro2008-02-14_mbho_t13.flac 3:08.608 108638252 B cxx -- ---xx flac 0.5759 jakeshimabukuro2008-02-14_mbho_t14.flac 75:06.261 2595607144 B 0.5063 (14 files)
mo:performer
event:place
skos:prefLabel
  • Jake Shimabukuro Live at Ram's Head Onstage on 2008-02-14
rdfs:seeAlso
etree:source
  • mbho 603a/ka100dk (omni, jecklin) > sound devices mp2 > busman t-mod edirol r4 (24/96)
event:time
rdf:type
etree:uploader
  • sleepypedro@gmail.com