PropertyValue
etree:date
  • 2008-02-16
etree:description
  • Jake Shimabukuro February 16, 2008 Ram's Head Onstage Annapolis MD *** THIS IS A 24-BIT FILESET NOT INTENDED FOR AUDIO CD *** 01 intro 02 Crosscurrent 03 Somewhere Over The Rainbow 04 In My Life 05 Dragon 06 Me & Shirley T 07 Sakura Sakura 08 Blue Roses Falling 09 Wes On 4 10 Let's Dance 11 Ave Maria 12 Orange World 13 Happy Birthday 14 While My Guitar Gently Weeps 15 Something
event:hasSubEvent
etree:id
  • jakeshimabukuro2008-02-16.mbho.flac24
etree:lineage
  • soundforge 8.0 (tracking, fades) > flac 1.2.0a
etree:notes
  • length expanded size cdr WAVE problems fmt ratio filename 1:17.184 44458028 B cxx -- ---xx flac 0.5195 jakeshimabukuro2008-02-16_mbho_t01.flac 3:25.355 118284332 B cxx -- ---xx flac 0.5464 jakeshimabukuro2008-02-16_mbho_t02.flac 4:27.563 154116140 B cxx -- ---xx flac 0.5151 jakeshimabukuro2008-02-16_mbho_t03.flac 5:00.245 172941356 B cxx -- ---xx flac 0.5037 jakeshimabukuro2008-02-16_mbho_t04.flac 4:08.288 143013932 B cxx -- ---xx flac 0.5121 jakeshimabukuro2008-02-16_mbho_t05.flac 8:13.344 284166188 B cxx -- ---xx flac 0.5399 jakeshimabukuro2008-02-16_mbho_t06.flac 4:25.728 153059372 B cxx -- ---xx flac 0.5072 jakeshimabukuro2008-02-16_mbho_t07.flac 5:13.621 180645932 B cxx -- ---xx flac 0.5203 jakeshimabukuro2008-02-16_mbho_t08.flac 4:44.139 163663916 B cxx -- ---xx flac 0.5553 jakeshimabukuro2008-02-16_mbho_t09.flac 8:37.525 298094636 B cxx -- ---xx flac 0.5509 jakeshimabukuro2008-02-16_mbho_t10.flac 4:31.723 156512300 B cxx -- ---xx flac 0.5027 jakeshimabukuro2008-02-16_mbho_t11.flac 6:29.845 224550956 B cxx -- ---xx flac 0.5449 jakeshimabukuro2008-02-16_mbho_t12.flac 5:09.888 178495532 B cxx -- ---xx flac 0.5247 jakeshimabukuro2008-02-16_mbho_t13.flac 7:35.040 262103084 B cxx -- ---xx flac 0.5306 jakeshimabukuro2008-02-16_mbho_t14.flac 5:12.405 179945516 B cxx -- ---xx flac 0.5123 jakeshimabukuro2008-02-16_mbho_t15.flac 78:31.893 2714051220 B 0.5282 (15 files)
mo:performer
event:place
skos:prefLabel
  • Jake Shimabukuro Live at Ram's Head Onstage on 2008-02-16
rdfs:seeAlso
etree:source
  • mbho 603a/ka100dk (omni, jecklin) > sound devices mp2 > busman t-mod edirol r4 (24/96)
event:time
rdf:type
etree:uploader
  • sleepypedro@gmail.com