PropertyValue
etree:date
  • 2012-06-15
etree:description
event:hasSubEvent
etree:id
  • jt2012-06-15.schoeps_mk41sbmix_16bit
etree:keyword
  • Disc Jam 2012
etree:lineage
  • WAV>USB>Macbook Pro>Audacity(mixing)>Wave Editor(tracking,fades,resample(izotope)/dither(mbit+)to 16 bit/44.1k)>XAct(FLAC 8,ffp,fix sbe)
etree:notes
  • Jammin' Toast 2012-06-15 Disc Jam 2012 Hylands Orchard & Brewery Sturbridge, MA Recorded and transferred by Andy Murray Mics were 30' from stage DFC DIN Schoeps MK41>KC5>CMC6>Sonosax SX-R4(24bit/96khz) & Soundboard>SX-R4 WAV>USB>Macbook Pro>Audacity(mixing)Wave Editor(tracking,fades,resample(izotope)/dither(mbit+)to 16 bit/44.1k)>XAct(FLAC 8,ffp,fix sbe) 1 Set length expanded size cdr WAVE problems fmt ratio filename 0:25.23 4464140 B --- -- ----- wav 1.0000 jt2012-06-15_mk41sbmix_1644_d1t01.wav 7:53.32 83512508 B --- -- ----- wav 1.0000 jt2012-06-15_mk41sbmix_1644_d1t02.wav 2:58.08 31418060 B --- -- ----- wav 1.0000 jt2012-06-15_mk41sbmix_1644_d1t03.wav 8:00.50 84789644 B --- -- ----- wav 1.0000 jt2012-06-15_mk41sbmix_1644_d1t04.wav 19:17.38 204184352 B 1.0000 (4 files)
mo:performer
event:place
skos:prefLabel
  • Jammin' Toast Live at Hylands Orchard & Brewery on 2012-06-15
rdfs:seeAlso
etree:source
  • Schoeps Mk41>KC5>CMC6>Sonosax SX-R4(24bit/96khz) & Soundboard
event:time
rdf:type
etree:uploader
  • andyjah420@yahoo.com