PropertyValue
etree:date
  • 2013-01-11
etree:description
  • 01. Track1 02. Don't Need You 03. All Kinds of Crazy 04. Getaway Queen 05. Track5 (new song) 06. Wrong Kind of Woman 07. Last Man Standing 08. Low Down 09. Born Cryin'
event:hasSubEvent
etree:id
  • mb2013-01-11.schoeps_mk4mk22mix_16bit
etree:lineage
  • WAV>USB>Macbook Pro>Audacity(mixing)>Wave Editor(tracking,fades,resample(izotope)/dither(mbit+)to 16 bit/44.1k)>XAct(FLAC 8,ffp,fix sbe)
etree:notes
  • The Mallett Brothers 2014-01-11 The Sinclair Cambridge, MA Mics were slightly right of center by the soundboard mk22s were NOS mk4s were 21cm/110 degrees Source: Schoeps MK4>KC5>CMC6>Sonosax SX-R4 & Schoeps mk22>Nbob actives>Naiant PFAs>Sonosax SX-R4 (24bit/48khz) Lineage: WAV>USB>Macbook Pro>Audacity(mixing)>Wave Editor(tracking,fades,resample(izotope)/dither(mbit+)to 16 bit/44.1k)>XAct(FLAC 8,ffp,fix sbe) Taped by: Andy Murray Transferred by: Andy Murray Dead Boots and The Mallett Brothers opened for Ghosts Of Jupiter 1 Set length expanded size cdr WAVE problems fmt ratio filename 4:51.74 51506492 B --- -- ----- wav 1.0000 mb2014-01-11_mk4mk22mix_1644_d1t01.wav 7:16.23 76964540 B --- -- ----- wav 1.0000 mb2014-01-11_mk4mk22mix_1644_d1t02.wav 3:51.48 40861340 B --- -- ----- wav 1.0000 mb2014-01-11_mk4mk22mix_1644_d1t03.wav 5:39.49 59914892 B --- -- ----- wav 1.0000 mb2014-01-11_mk4mk22mix_1644_d1t04.wav 3:23.31 35882156 B --- -- ----- wav 1.0000 mb2014-01-11_mk4mk22mix_1644_d1t05.wav 5:11.21 54909836 B --- -- ----- wav 1.0000 mb2014-01-11_mk4mk22mix_1644_d1t06.wav 4:35.49 48625292 B --- -- ----- wav 1.0000 mb2014-01-11_mk4mk22mix_1644_d1t07.wav 4:45.01 50276396 B --- -- ----- wav 1.0000 mb2014-01-11_mk4mk22mix_1644_d1t08.wav 3:57.47 41917388 B --- -- ----- wav 1.0000 mb2014-01-11_mk4mk22mix_1644_d1t09.wav 43:32.43 460858332 B 1.0000 (9 files)
mo:performer
event:place
skos:prefLabel
  • The Mallett Brothers Band Live at The Sinclair on 2013-01-11
rdfs:seeAlso
etree:source
  • Schoeps MK4/MK22>Sonosax SX-R4
event:time
rdf:type
etree:uploader
  • andyjah420@yahoo.com