PropertyValue
etree:date
  • 2007-09-29
etree:description
  • Old Union 2007-09-29 Mucklewain Music Festival Pinewood, TN. ***16bit Source*** Source: SBD > Sound Devices 722 @ 24bit/96kHz Transfer: 722 > HDD > Wavelab 5.01a (Re-Sample/UV22HR Dither/Fades) > CDWave > FLAC (8) Taped, Transferred & Seeded by Martin Medley. Thanks to Old Union for the letting me record! One Set: 01. Motels & Highways 02. Jericho 03. Backbreaker 04. Justified 05. California Eyes 06. 10 Years Gone 07. Sweet Freedom
event:hasSubEvent
etree:id
  • oldunion2007-09-29.sbd.flac16
etree:lineage
  • 722 > HDD > Wavelab 5.01a (Re-Sample/UV22HR Dither/Fades) > CDWave > FLAC (8)
etree:notes
  • Notes: http://oldunion.com shntool info: length expanded size cdr WAVE problems filename 7:04.55 74923004 --- -- ---xx oldunion2007-09-29t01.flac 6:32.69 69311132 --- -- ---xx oldunion2007-09-29t02.flac 4:25.55 46875404 --- -- ---xx oldunion2007-09-29t03.flac 5:06.42 54077228 --- -- ---xx oldunion2007-09-29t04.flac 8:47.37 93049868 --- -- ---xx oldunion2007-09-29t05.flac 6:19.67 67013228 --- -- ---xx oldunion2007-09-29t06.flac 7:27.63 78999020 --- -- ---xx oldunion2007-09-29t07.flac 45:45.13 484248884 B (totals for 7 files, 0.5716 overall compression ratio)
mo:performer
event:place
skos:prefLabel
  • Old Union Live at Mucklewain Music Festival on 2007-09-29
rdfs:seeAlso
etree:source
  • SBD > Sound Devices 722 @ 24bit/96kHz
event:time
rdf:type
etree:uploader
  • mlm1218@hotmail.com