PropertyValue
etree:date
  • 2009-07-10
etree:description
  • Old Union 2009-07-10 Mercy Lounge Nashville, TN. ***16bit Source*** Source: Schoeps MK4V > KC5 > CMC6 > Sound Devices 722 (24bit/48kHz) Location: FOB/DFC/7ft/12ft from stage Transfer: 722 > HDD > Wavelab 5.01b (Re-Sampler192/MBit+ Dither/DSP/Fades) > CDWave > FLAC (8) Taped, Transferred & Seeded by Martin Medley One Set: 01. Intro 02. Breakdown 03. Jericho 04. 05. Catastrophe 06. L.C. 07. I Can See Clearly Now * 08. Come On In My Kitchen * 09. 10. In My Time Of Dying 11. 12. Sweet Freedom 13. Goin' Down ** * with Jonell Mosser on vocals ** with Benji Shanks on slide guitar
event:hasSubEvent
etree:id
  • oldunion2009-07-10.mk4v.flac16
etree:lineage
  • 722 > HDD > Wavelab 5.01b (Re-Sampler192/MBit+ Dither/Fades) > CDWave > FLAC (8)
etree:notes
  • shntool info: length expanded size cdr WAVE problems fmt ratio filename 1:19.08 13954460 B --- -- ---xx flac 0.4078 oldunion2009-07-10t01.flac 7:43.59 81812012 B --- -- ---xx flac 0.6871 oldunion2009-07-10t02.flac 6:11.59 65583212 B --- -- ---xx flac 0.6841 oldunion2009-07-10t03.flac 8:50.71 93659036 B --- -- ---xx flac 0.6598 oldunion2009-07-10t04.flac 4:34.43 48434780 B --- -- ---xx flac 0.6447 oldunion2009-07-10t05.flac 10:01.49 106131692 B --- -- ---xx flac 0.6476 oldunion2009-07-10t06.flac 6:13.06 65811356 B --- -- ---xx flac 0.6720 oldunion2009-07-10t07.flac 4:38.25 49098044 B --- -- ---xx flac 0.6523 oldunion2009-07-10t08.flac 7:32.00 79732844 B --- -- ---xx flac 0.6955 oldunion2009-07-10t09.flac 8:37.18 91241180 B --- -- ---xx flac 0.6549 oldunion2009-07-10t10.flac 6:34.22 69553388 B --- -- ---xx flac 0.6524 oldunion2009-07-10t11.flac 7:19.05 77451404 B --- -- ---xx flac 0.6694 oldunion2009-07-10t12.flac 5:42.07 60345308 B --- -- ---xx flac 0.7039 oldunion2009-07-10t13.flac 85:17.72 902808716 B 0.6642 (13 files)
mo:performer
event:place
skos:prefLabel
  • Old Union Live at Mercy Lounge on 2009-07-10
rdfs:seeAlso
etree:source
  • Schoeps MK4V (ORTF) > KC5 > CMC6 > Sound Devices 722 (24bit/48kHz)
event:time
rdf:type
etree:uploader
  • martin.medley@live.com