PropertyValue
etree:date
  • 2013-04-26
etree:description
  • Orange Television 2013-04-26 Brighton Music Hall Allston, MA DPA 4011 > V3 Digital > DR-680 (24/96) SDHC Card > Sound Forge Pro 10.0 (Normalize, fades, resample iZotope 64-Bit SRC, dither iZotope MBIT+ Dither) > CD Wav (tracking) > TLH > Flac (level 8) DFC/FOB/DIN/approx. 7 1/2' high Tags added in Foobar2000 Taped and Transferred by Brian V. 01. 02. 03. 04. 05. 06. 07. 08. Fuckin' Up
event:hasSubEvent
etree:id
  • orangetelevision2013-04-26.dpa4011.flac16
etree:lineage
  • SDHC Card > Sound Forge Pro 10.0 (Normalize, fades, resample iZotope 64-Bit SRC, dither iZotope MBIT+ Dither) > CD Wav (tracking) > TLH > Flac (level 8)
etree:notes
  • thanks to Andy for the clamp space ***Support Bands That Allow Taping/Trading*** flac fingerprints orangetelevision2013-04-26s1t01.flac:f6dcc804d414f5cc7457b2b8c1544f5f orangetelevision2013-04-26s1t02.flac:c48bac7956c80f4cb7a924cb66d2151d orangetelevision2013-04-26s1t03.flac:d12073457538e5200bc03968d4564f17 orangetelevision2013-04-26s1t04.flac:d8ddb0b21a8b6344346207c3f9102d18 orangetelevision2013-04-26s1t05.flac:fa07d5028e5b4df0224186b29aecec91 orangetelevision2013-04-26s1t06.flac:d923aee1f79d9f4dbf63445a0fec07b4 orangetelevision2013-04-26s1t07.flac:e07cdf4df1f83cfe262016218793a8b0 orangetelevision2013-04-26s1t08.flac:a304925104e8b7c1c72ce671c4ea35d9 shntool length expanded size cdr WAVE problems fmt ratio filename 4:37.36 48947516 B --- -- ---xx flac 0.5441 orangetelevision2013-04-26s1t01.flac 4:47.26 50687996 B --- -- ---xx flac 0.5493 orangetelevision2013-04-26s1t02.flac 4:01.29 42580652 B --- -- ---xx flac 0.5744 orangetelevision2013-04-26s1t03.flac 5:39.06 59813756 B --- -- ---xx flac 0.5410 orangetelevision2013-04-26s1t04.flac 6:19.25 66914444 B --- -- ---xx flac 0.5402 orangetelevision2013-04-26s1t05.flac 4:50.55 51285404 B --- -- ---xx flac 0.5123 orangetelevision2013-04-26s1t06.flac 6:14.57 66107708 B --- -- ---xx flac 0.5537 orangetelevision2013-04-26s1t07.flac 8:00.74 84846092 B --- -- ---xx flac 0.5714 orangetelevision2013-04-26s1t08.flac 44:31.08 471183568 B 0.5492 (8 files)
mo:performer
event:place
skos:prefLabel
  • Orange Television Live at Brighton Music Hall on 2013-04-26
rdfs:seeAlso
etree:source
  • DPA 4011 > V3 Digital > DR-680 (24/96)
event:time
rdf:type
etree:uploader
  • brianvaz@gmail.com