PropertyValue
etree:date
  • 2013-05-24
etree:description
  • *** This is a 24 bit recording, not intended for CD Burning *** Orange Television 2013-05-24 StrangeCreek Music Festival Camp KeeWanee Greenfield, MA Riverworm Stage AKG c214 + SBD (mono) > R44 (24/48) SDHC Card > Sound Forge Pro 10.0 (mix, fades, normalize, resample iZotope 64-Bit SRC, dither iZotope MBIT+ Dither) > CD Wav (tracking) > TLH > Flac (level 8) DFC at corner of FOH/DIN/approx. 7.5' high Taped and Transferred by Brian V. 01. 02. 03. 04. 05. 06. 07.
event:hasSubEvent
etree:id
  • orangetelevision2013-05-24.akg.c214-sbd.flac24
etree:keyword
  • Strangecreek 2013
etree:lineage
  • SDHC Card > Sound Forge Pro 10.0 (mix, fades, normalize, resample iZotope 64-Bit SRC, dither iZotope MBIT+ Dither) > CD Wav (tracking) > TLH > Flac (level 8)
etree:notes
  • Thanks to everyone that put StrangeCreek together and for the tapers spot. ***Support Bands That Allow Taping/Trading*** shntool output length expanded size cdr WAVE problems fmt ratio filename 9:17.213 160477484 B cxx -- ---xx flac 0.7016 orangetelevision2013-05-24s1t01.flac 4:23.987 76028204 B cxx -- ---xx flac 0.7099 orangetelevision2013-05-24s1t02.flac 9:07.333 157632044 B cxx -- ---xx flac 0.6988 orangetelevision2013-05-24s1t03.flac 4:25.333 76416044 B cxx -- ---xx flac 0.7098 orangetelevision2013-05-24s1t04.flac 5:49.907 100773164 B cxx -- ---xx flac 0.7050 orangetelevision2013-05-24s1t05.flac 6:20.880 109693484 B cxx -- ---xx flac 0.7195 orangetelevision2013-05-24s1t06.flac 14:19.795 247620908 B cxx -- ---xx flac 0.6822 orangetelevision2013-05-24s1t07.flac 53:44.448 928641332 B 0.6998 (7 files)
mo:performer
event:place
skos:prefLabel
  • Orange Television Live at StrangeCreek Campout, Camp Kee-Wanee on 2013-05-24
rdfs:seeAlso
etree:source
  • AKG c214 + SBD (mono) > R44 (24/48)
event:time
rdf:type
etree:uploader
  • brianvaz@gmail.com