PropertyValue
etree:date
  • 2013-04-26
etree:description
event:hasSubEvent
etree:id
  • ot2013-04-26.schoeps_mk22mk41mix_16bit
etree:lineage
  • WAV>USB>Macbook Pro>Audacity(mixing)>Wave Editor(tracking,fades,resample(izotope)/dither(mbit+)to 16 bit/44.1k)>XAct(FLAC 8,ffp,fix sbe)
etree:notes
  • Orange Television 2013-04-26 Brighton Music Hall Allston, MA Mics were right of center in front the soundboard MK22s were NOS MK41s were DIN Source: Schoeps MK22>KC5>CMC6>Sonosax SX-R4 & Schoeps mk41>Nbob actives>Naiant PFAs>Sonosax SX-R4 (24bit/48khz) Lineage: WAV>USB>Macbook Pro>Audacity(mixing)>Wave Editor(tracking,fades,resample(izotope)/dither(mbit+)to 16 bit/44.1k)>XAct(FLAC 8,ffp,fix sbe) Taped by: Andy Murray Transferred by: Andy Murray Bow Thayer and the Perfect Trainwreck and Ghosts Of Jupiter were also on the lineup. 1 Set length expanded size cdr WAVE problems fmt ratio filename 4:29.32 47526908 B --- -- ----- wav 1.0000 ot2013-04-26_mk22mk41mix_1644_d1t01.wav 5:05.06 53816156 B --- -- ----- wav 1.0000 ot2013-04-26_mk22mk41mix_1644_d1t02.wav 4:02.62 42834668 B --- -- ----- wav 1.0000 ot2013-04-26_mk22mk41mix_1644_d1t03.wav 5:06.48 54091340 B --- -- ----- wav 1.0000 ot2013-04-26_mk22mk41mix_1644_d1t04.wav 6:31.54 69099452 B --- -- ----- wav 1.0000 ot2013-04-26_mk22mk41mix_1644_d1t05.wav 5:08.57 54465308 B --- -- ----- wav 1.0000 ot2013-04-26_mk22mk41mix_1644_d1t06.wav 6:16.03 66333500 B --- -- ----- wav 1.0000 ot2013-04-26_mk22mk41mix_1644_d1t07.wav 8:20.62 88345868 B --- -- ----- wav 1.0000 ot2013-04-26_mk22mk41mix_1644_d1t08.wav 45:01.24 476513200 B 1.0000 (8 files)
mo:performer
event:place
skos:prefLabel
  • Orange Television Live at Brighton Music Hall on 2013-04-26
rdfs:seeAlso
etree:source
  • Schoeps MK22/MK41>Sonosax SX-R4
event:time
rdf:type
etree:uploader
  • andyjah420@yahoo.com