PropertyValue
etree:date
  • 2007-09-04
etree:description
  • The Brakes September 4, 2007 Ram's Head Onstage Annapolis MD *** THIS IS A 16-BIT FILESET INTENDED FOR AUDIO CD *** 01 02 03 04 05 06
event:hasSubEvent
etree:id
  • thebrakes2007-09-04.mbho.flac16
etree:lineage
  • soundforge 8.0 (tracking, fades, resample, dither) > flac 1.2.0a
etree:notes
  • length expanded size cdr WAVE problems fmt ratio filename 0:11.61 2083916 B --- -- ---xx flac 0.4795 thebrakes2007-09-04_mbho_t01.flac 4:54.72 52030988 B --- -- ---xx flac 0.6489 thebrakes2007-09-04_mbho_t02.flac 5:57.66 63130076 B --- -- ---xx flac 0.5555 thebrakes2007-09-04_mbho_t03.flac 6:37.14 70063772 B --- -- ---xx flac 0.5755 thebrakes2007-09-04_mbho_t04.flac 8:14.50 87259244 B --- -- ---xx flac 0.6271 thebrakes2007-09-04_mbho_t05.flac 5:26.04 57515852 B --- -- ---xx flac 0.6261 thebrakes2007-09-04_mbho_t06.flac 31:22.42 332083848 B 0.6049 (6 files)
mo:performer
event:place
skos:prefLabel
  • The Brakes Live at Ram's Head Onstage on 2007-09-04
rdfs:seeAlso
etree:source
  • mbho 603a/ka100dk (jecklin) > mp2 > tmod edirol r4
event:time
rdf:type
etree:uploader
  • sleepypedro@gmail.com