PropertyValue
etree:date
  • 2007-09-04
etree:description
  • The Brakes September 4, 2007 Ram's Head Onstage Annapolis MD *** THIS IS A 24-BIT FILESET NOT INTENDED FOR AUDIO CD *** 01 02 03 04 05 06
event:hasSubEvent
etree:id
  • thebrakes2007-09-04.mbho.flac24
etree:lineage
  • soundforge 8.0 (tracking, fades) > flac 1.2.0a
etree:notes
  • length expanded size cdr WAVE problems fmt ratio filename 0:11.819 6807596 B cxx -- ---xx flac 0.5480 thebrakes2007-09-04_mbho_t01.flac 4:54.955 169893932 B cxx -- ---xx flac 0.6360 thebrakes2007-09-04_mbho_t02.flac 5:57.888 206143532 B cxx -- ---xx flac 0.5963 thebrakes2007-09-04_mbho_t03.flac 6:37.184 228778028 B cxx -- ---xx flac 0.6039 thebrakes2007-09-04_mbho_t04.flac 8:14.667 284928044 B cxx -- ---xx flac 0.6261 thebrakes2007-09-04_mbho_t05.flac 5:26.036 187796918 B cxx -- ---xx flac 0.6212 thebrakes2007-09-04_mbho_t06.flac 31:22.548 1084348050 B 0.6160 (6 files)
mo:performer
event:place
skos:prefLabel
  • The Brakes Live at Ram's Head Onstage on 2007-09-04
rdfs:seeAlso
etree:source
  • mbho 603a/ka100dk (jecklin) > mp2 > tmod edirol r4
event:time
rdf:type
etree:uploader
  • sleepypedro@gmail.com