PropertyValue
etree:date
  • 2008-11-12
etree:description
  • The Brakes November 12, 2008 Ram's Head Onstage Annapolis MD *** THIS IS A 16-BIT FILESET INTENDED FOR AUDIO CD *** SOURCE: mbho 603a/ka200n (cardioid, ORTF) > sound devices mp2 > busman t-mod edirol r4 (24/96) PROCESSING: soundforge 8.0 (tracking, fades, resample, dither) > flac 1.2.0a 01 02 03 04 05 06 07 08 09
event:hasSubEvent
etree:id
  • thebrakes2008-11-12.mbho.flac16
etree:lineage
  • soundforge 8.0 (tracking, fades, resample, dither) > flac 1.2.0a
etree:notes
  • length expanded size cdr WAVE problems fmt ratio filename 1:04.00 11289644 B --- -- ---xx flac 0.2771 thebrakes2008-11-12_mbho_t01.flac 4:59.19 52788332 B --- -- ---xx flac 0.4104 thebrakes2008-11-12_mbho_t02.flac 3:36.69 38264732 B --- -- ---xx flac 0.5120 thebrakes2008-11-12_mbho_t03.flac 4:17.60 45475964 B --- -- ---xx flac 0.4974 thebrakes2008-11-12_mbho_t04.flac 5:57.09 62996012 B --- -- ---xx flac 0.4428 thebrakes2008-11-12_mbho_t05.flac 2:48.14 29668172 B --- -- ---xx flac 0.5144 thebrakes2008-11-12_mbho_t06.flac 4:52.09 51530012 B --- -- ---xx flac 0.5426 thebrakes2008-11-12_mbho_t07.flac 3:18.01 34929596 B --- -- ---xx flac 0.6045 thebrakes2008-11-12_mbho_t08.flac 5:14.11 55415516 B --- -- ---xx flac 0.5510 thebrakes2008-11-12_mbho_t09.flac 36:07.42 382357980 B 0.4963 (9 files)
mo:performer
event:place
skos:prefLabel
  • The Brakes Live at Ram's Head Onstage on 2008-11-12
rdfs:seeAlso
etree:source
  • mbho 603a/ka200n (cardioid, ORTF) > sound devices mp2 > busman t-mod edirol r4 (24/96)
event:time
rdf:type
etree:uploader
  • sleepypedro@gmail.com