PropertyValue
etree:date
  • 2005-09-25
etree:description
  • The Decemberists September 25, 2005 AMD Stage Austin City Limits Festival Austin TX *** THIS IS A 16-BIT FILESET INTENDED FOR AUDIO CD *** SOURCE: dpa 4061 > coresound battery box > sony pcm-m1 (16/44.1) [kubacheck] PROCESSING: archive python DDS > dat2wav 1.2 > soundforge 8.0 (tracking, fades) > flac v1.20 [pwking] 01 DJ intro 02 California One > Youth And Beauty Brigade 03 The Sporting Life 04 July, July! 05 We Both Go Down Together 06 The Legionnaire's Lament 07 Song For The Myla Goldberg 08 The Chimbley Sweep 09 Sixteen Military Wives 10 Red Right Ankle 11 The Mariner's Revenge Song
event:hasSubEvent
etree:id
  • thedecemberists2005-09-25.4061.flac16
etree:lineage
  • archive python DDS > dat2wav 1.2 > soundforge 8.0 (tracking, fades) > flac v1.20
etree:notes
  • length expanded size cdr WAVE problems fmt ratio filename 0:27.43 4863980 B --- -- ---xx flac 0.3602 thedecemberists2005-09-25_4061_t01.flac 11:47.44 124818332 B --- -- ---xx flac 0.4383 thedecemberists2005-09-25_4061_t02.flac 4:34.12 48361868 B --- -- ---xx flac 0.4858 thedecemberists2005-09-25_4061_t03.flac 3:48.24 40275692 B --- -- ---xx flac 0.5037 thedecemberists2005-09-25_4061_t04.flac 3:35.00 37926044 B --- -- ---xx flac 0.4841 thedecemberists2005-09-25_4061_t05.flac 4:24.67 46727228 B --- -- ---xx flac 0.4765 thedecemberists2005-09-25_4061_t06.flac 5:00.28 52985900 B --- -- ---xx flac 0.4596 thedecemberists2005-09-25_4061_t07.flac 7:07.67 75480428 B --- -- ---xx flac 0.4403 thedecemberists2005-09-25_4061_t08.flac 5:54.13 62476220 B --- -- ---xx flac 0.4870 thedecemberists2005-09-25_4061_t09.flac 6:29.28 68685500 B --- -- ---xx flac 0.3911 thedecemberists2005-09-25_4061_t10.flac 8:29.71 89954636 B --- -- ---xx flac 0.4775 thedecemberists2005-09-25_4061_t11.flac 61:39.22 652555828 B 0.4577 (11 files)
mo:performer
event:place
skos:prefLabel
  • The Decemberists Live at ACL Festival on 2005-09-25
rdfs:seeAlso
etree:source
  • dpa 4061 > coresound battery box > pcm-m1
event:time
rdf:type
etree:uploader
  • sleepypedro@gmail.com