PropertyValue
etree:date
  • 2006-06-27
etree:description
  • Tea Leaf Green June 27, 2006 First Show - 6PM Alameda County Fair Pleasanton, CA Source: Schoeps mk21 (DFC/NOS)->kc5-> cmc6xt-> Oade m248-> SD722 (24/48)-> CD Wave-> WaveLab (16/44)-> FLAC Frontend (Level 6)-> FLAC Taper: Chris Imburgia One Set 1. Harvest Time 2. If It Wasn't for the Money 3. I've Been Seeking 4. Papa's in the Backroom 5. California 6. Georgie P. 7. Country Seduction 8. Earth & Sky 9. Flippin' the Bird 10. Sea Monkeys 11. Garden III FLAC Fingerprint ----------------------------------------------------- tlg2006-06-27at11.flac:4527525658ad0fa290d02a0c4cf10395 tlg2006-06-27at01.flac:bf4b38b9f216f114ae422932ea3a66ce tlg2006-06-27at02.flac:74e17781c965f8df5e66b3de71b64520 tlg2006-06-27at03.flac:63bd7cac1d24e2ce7bed6df144980cb1 tlg2006-06-27at04.flac:b2fcd0ac592d6b0f3afacc78e22d1bee tlg2006-06-27at05.flac:29740be2b107bee8ec1a7f2c1f7f90d1 tlg2006-06-27at06.flac:980ce2b3f56390aafb35f0c98592ceed tlg2006-06-27at07.flac:fed339381166137bcdcf18285f97a584 tlg2006-06-27at08.flac:6585787d04f171cf3b76ba6c307783ed tlg2006-06-27at09.flac:04bd18185afb70892335a59613123542 tlg2006-06-27at10.flac:ebb9b875897242a6e6f1934bd43b5ed7 length expanded size cdr WAVE problems filename 4:44.36 50182316 --- -- ---xx tlg2006-06-27at01.flac 4:49.37 51066668 --- -- ---xx tlg2006-06-27at02.flac 5:06.39 54070172 --- -- ---xx tlg2006-06-27at03.flac 6:48.68 72131180 --- -- ---xx tlg2006-06-27at04.flac 4:59.59 52882412 --- -- ---xx tlg2006-06-27at05.flac 7:51.28 83150300 --- -- ---xx tlg2006-06-27at06.flac 4:01.05 42524204 --- -- ---xx tlg2006-06-27at07.flac 7:23.24 78201692 --- -- ---xx tlg2006-06-27at08.flac 3:59.31 42232556 --- -- ---xx tlg2006-06-27at09.flac 8:51.41 93764876 --- -- ---xx tlg2006-06-27at10.flac 4:59.12 52771868 --- -- ---xx tlg2006-06-27at11.flac 63:35.05 672978244 B (totals for 11 files, 0.6356 overall compression ratio)
etree:id
  • tlg2006-06-27.showamk21
etree:lineage
etree:notes
mo:performer
event:place
skos:prefLabel
  • Tea Leaf Green Live at Alameda County Fair - Pleasanton, CA on 2006-06-27
rdfs:seeAlso
etree:source
  • Schoeps mk21 (DFC/NOS)->kc5-> cmc6xt-> Oade m248-> SD722 (24/48)-> CD Wave-> WaveLab (16/44)-> FLAC Frontend (Level 6)-> FLAC
event:time
rdf:type
etree:uploader
  • chrisimburgia@runbox.com