PropertyValue
etree:date
  • 2007-03-02
etree:description
  • Tea Leaf Green 2007-03-02 Rhythm & Brews Chattanooga, TN. ***16bit Source*** Source: Schoeps MK4V > KC5 > CMC6 > SD 722 @ 24/96 Location: ORTF/DFC/Hung From Balcony Rail/20ft from stage Transfer: SD 722 > HDD > Wavelab 5.01a (Re-Sample/UV22HR Dither/Fades) > CDWave > FLAC (8) Taped, Transferred & Seeded by Martin Medley. Set 1: Disc 1: 01. Reservoir 02. Cops Took My Weed 03. Garden (Part 1) > 04. Garden (Part 2) > 05. Let Us Go 06. Piss It Away 07. Papa's 08. Georgie P 09. Barnacle B 10. Faced With Love 11. Bouncin Betty 12. Have A Drink On Me Set 2: Disc 2: 01. Franz 02. These 2 Chairs 03. Jezebel 04. No Friends In Arizona 05. 5000 Acres 06. Hanging From A Tree 07. Baseball 08. Addressing The Community > 09. Morning Sun Disc 3: 01. Flippin The Bird 02. Incandescent Devil 03. Dragonfly 04. Taught To Be Proud Encore: 05. Planet Of Green Love > 06. Kali Yuga
etree:id
  • tlg2007-03-02.mk4v.flac16
etree:lineage
  • SD 722 > HDD > Wavelab 5.01a (Re-Sample/UV22HR Dither/Fades) > CDWave > FLAC (8)
etree:notes
  • shntool info: length expanded size cdr WAVE problems filename 7:43.71 81840236 --- -- ---xx tlg2007-03-02d1t01.flac 3:54.36 41362316 --- -- ---xx tlg2007-03-02d1t02.flac 1:46.42 18797228 --- -- ---xx tlg2007-03-02d1t03.flac 4:22.37 46303868 --- -- ---xx tlg2007-03-02d1t04.flac 4:39.07 49232108 --- -- ---xx tlg2007-03-02d1t05.flac 9:49.65 104052524 --- -- ---xx tlg2007-03-02d1t06.flac 7:43.48 81786140 --- -- ---xx tlg2007-03-02d1t07.flac 8:44.68 92593580 --- -- ---xx tlg2007-03-02d1t08.flac 6:18.35 66761564 --- -- ---xx tlg2007-03-02d1t09.flac 5:16.06 55756556 --- -- ---xx tlg2007-03-02d1t10.flac 6:44.22 71317388 --- -- ---xx tlg2007-03-02d1t11.flac 5:39.70 59964284 --- -- ---xx tlg2007-03-02d1t12.flac 13:15.03 140245100 --- -- ---xx tlg2007-03-02d2t01.flac 5:37.22 59498588 --- -- ---xx tlg2007-03-02d2t02.flac 8:52.04 93854252 --- -- ---xx tlg2007-03-02d2t03.flac 4:57.60 52531964 --- -- ---xx tlg2007-03-02d2t04.flac 6:27.40 68360924 --- -- ---xx tlg2007-03-02d2t05.flac 4:05.23 43272140 --- -- ---xx tlg2007-03-02d2t06.flac 8:18.27 87910748 --- -- ---xx tlg2007-03-02d2t07.flac 7:29.51 79323596 --- -- ---xx tlg2007-03-02d2t08.flac 7:21.21 77841836 --- -- ---xx tlg2007-03-02d2t09.flac 3:28.74 36865292 --- -- ---xx tlg2007-03-02d3t01.flac 5:44.49 60796892 --- -- ---xx tlg2007-03-02d3t02.flac 5:09.61 54651116 --- -- ---xx tlg2007-03-02d3t03.flac 9:59.23 105717740 --- -- ---xx tlg2007-03-02d3t04.flac 5:07.52 54277148 --- -- ---xx tlg2007-03-02d3t05.flac 10:13.13 108163820 --- -- ---xx tlg2007-03-02d3t06.flac 178:51.55 1893078948 B (totals for 27 files, 0.5785 overall compression ratio)
mo:performer
event:place
skos:prefLabel
  • Tea Leaf Green Live at Rhythm & Brews on 2007-03-02
rdfs:seeAlso
etree:source
  • Schoeps MK4V > KC5 > CMC6 > SD 722 @ 24/96
event:time
rdf:type
etree:uploader
  • mlm1218@hotmail.com