PropertyValue
etree:date
  • 2007-08-04
etree:description
  • Set One (Disc 1) 01. Hot Dog > 02. Garden I > 03. Garden III 04. Franz Hanzerbeak 05. Incandescent Devil 06. Steal Your Imagination 07. Panspermic De-Evolution 08. Ophelia 09. Las Vegas > 10. Red Ribbons Set Two (Disc 2) 01. Lil' Hood 02. Deep River> 03. Georgie P 04. Young Lust (w/ Eminence Front jam) 05. Faced With Love > 06. Sex In The 70's > 07. Planet of Green Love > 08. Carter Hotel > 09. Planet of Green Love (Disc 3) 01. Piss It Away > 02. Professor's Blues 03. Got No Friends in Arizona 04. E: Freedom > 05. E: Gasaholic
etree:id
  • tlg2007-08-04.flac16mk41
etree:lineage
etree:notes
  • Sector Boundary Verification -------------------------------------------- length expanded size cdr WAVE problems filename 8:31.54 90267452 --- -- ---xx tlg2007-08-04d1t01.flac 1:43.66 18324476 --- -- ---xx tlg2007-08-04d1t02.flac 5:14.14 55422572 --- -- ---xx tlg2007-08-04d1t03.flac 10:43.53 113549900 --- -- ---xx tlg2007-08-04d1t04.flac 6:30.20 68843084 --- -- ---xx tlg2007-08-04d1t05.flac 4:54.42 51960428 --- -- ---xx tlg2007-08-04d1t06.flac 11:01.57 116734508 --- -- ---xx tlg2007-08-04d1t07.flac 3:37.48 38391740 --- -- ---xx tlg2007-08-04d1t08.flac 4:52.64 51659372 --- -- ---xx tlg2007-08-04d1t09.flac 5:26.44 57609932 --- -- ---xx tlg2007-08-04d1t10.flac 5:19.12 56299868 --- -- ---xx tlg2007-08-04d2t01.flac 8:56.12 94578668 --- -- ---xx tlg2007-08-04d2t02.flac 8:47.49 93078092 --- -- ---xx tlg2007-08-04d2t03.flac 8:00.35 84754364 --- -- ---xx tlg2007-08-04d2t04.flac 5:31.48 58501340 --- -- ---xx tlg2007-08-04d2t05.flac 16:47.06 177648956 --- -- ---xx tlg2007-08-04d2t06.flac 11:06.61 117625916 --- -- ---xx tlg2007-08-04d2t07.flac 3:24.10 36009164 --- -- ---xx tlg2007-08-04d2t08.flac 1:23.55 14770604 --- -- ---xx tlg2007-08-04d2t09.flac 8:39.60 91692764 --- -- ---xx tlg2007-08-04d3t01.flac 14:18.25 151410044 --- -- ---xx tlg2007-08-04d3t02.flac 7:18.70 77427884 --- -- ---xx tlg2007-08-04d3t03.flac 8:53.21 94070636 --- -- ---xx tlg2007-08-04d3t04.flac 18:35.68 196845980 --- -- ---xx tlg2007-08-04d3t05.flac 189:40.19 2007477744 B (totals for 24 files, 0.5521 overall compression ratio)
mo:performer
event:place
skos:prefLabel
  • Tea Leaf Green Live at Mexicali Blues Cafe on 2007-08-04
rdfs:seeAlso
etree:source
  • Schoeps mk41 (DFC/DIN/FOB)-> kc5-> cmc6xt-> SD722 (24/96)-> CD Wave-> Wavelab (16/44)-> FLAC Frontend (Level 6)-> FLAC
event:time
rdf:type
etree:uploader
  • chrisimburgia@runbox.com