PropertyValue
etree:date
  • 2007-08-15
etree:description
  • Set 1: (Disc One) 01. Mistletwo > 02. Can You Guess It? 03. I've Been Seeking > 04. Red Ribbons 05. I'm Waiting for the Man > 06. Kali-Yuga 07. Jubilee 08. Don't Drift Away 09. Piss It Away 10. If It Wasn't for the Money Set 2: (Disc Two) 01. Gasaholic 02. Make A Connection 03. Have a Drink on Me 04. Asphalt Funk 05. Taught to be Proud 06. Dragonfly 07. Steal Your Imagination > 08. Ride Together
event:hasSubEvent
etree:id
  • tlg2007-08-15.akg461
etree:lineage
  • Panasonic SV3700>Marantz PMD670>CD Wave>Wavelab (16/44)>Flac Frontend (Level 6)> FLAC
etree:notes
  • w/ Holiday and the Adventure Pop Collective Sector Boundary Verification --------------------------------------- length expanded size cdr WAVE problems filename 5:59.13 63358220 --- -- ---xx tlg2007-08-15d1t01.flac 9:07.58 96627260 --- -- ---xx tlg2007-08-15d1t02.flac 4:47.54 50753852 --- -- ---xx tlg2007-08-15d1t03.flac 5:35.09 59115212 --- -- ---xx tlg2007-08-15d1t04.flac 6:22.58 67521260 --- -- ---xx tlg2007-08-15d1t05.flac 11:39.69 123465932 --- -- ---xx tlg2007-08-15d1t06.flac 7:13.60 76522364 --- -- ---xx tlg2007-08-15d1t07.flac 4:29.57 47585708 --- -- ---xx tlg2007-08-15d1t08.flac 8:10.06 86450156 --- -- ---xx tlg2007-08-15d1t09.flac 4:51.02 51337148 --- -- ---xx tlg2007-08-15d1t10.flac 12:39.59 134026412 --- -- ---xx tlg2007-08-15d2t01.flac 4:44.20 50144684 --- -- ---xx tlg2007-08-15d2t02.flac 6:38.05 70219004 --- -- ---xx tlg2007-08-15d2t03.flac 11:17.01 119425196 --- -- ---xx tlg2007-08-15d2t04.flac 8:08.62 86229068 --- -- ---xx tlg2007-08-15d2t05.flac 4:46.53 50575100 --- -- ---xx tlg2007-08-15d2t06.flac 4:05.34 43298012 --- -- ---xx tlg2007-08-15d2t07.flac 8:38.65 91528124 --- -- ---xx tlg2007-08-15d2t08.flac 129:16.10 1368182712 B (totals for 18 files, 0.5767 overall compression ratio)
mo:performer
event:place
skos:prefLabel
  • Tea Leaf Green Live at Winston's on 2007-08-15
rdfs:seeAlso
etree:source
  • AKG 460s w/CK61 DINa*>Sound Devices MP-1(x2)>SBM-1>D8 @16/48
event:time
rdf:type
etree:uploader
  • chrisimburgia@runbox.com