PropertyValue
etree:date
  • 2008-09-04
etree:description
  • Tea Leaf Green 2008-09-04 Mercy Lounge Nashville, TN. ***16bit Source*** Source: Schoeps MK4V > KC5 > CMC6 > Sound Devices 722 (24bit/96kHz) Location: FOB/DFC/8' high/15' from stage Transfer: 722 > HDD > Wavelab 5.01b (Re-Sampler192/MBit+ Dither/Fades) > CDWave > FLAC (8) Taped, Transferred & Seeded by Martin Medley Set 1: Disc 1: 01. Kali Yuga 02. Rattlin 03. Rapture 04. Piss It Away 05. Borrowed Time 06. Slept Thru Sunday 07. Dragon Fly 08. 5000 Acres 09. Incandescent Devil * Set 2: Disc 2: 01. Soldiers Of Kentucky 02. Goddess & Viper 03. Vote On Tuesday 04. Baseball 05. I've Got A Truck 06. These Two Chairs 07. Training A Cloud 08. Precious Stone 09. Can You Guess It 10. Death Cake Encore: 11. Keeping The Faith 12. Red Ribbons * with Hooch on guitar
event:hasSubEvent
etree:id
  • tlg2008-09-04.mk4v.flac16
etree:lineage
  • 722 > HDD > Wavelab 5.01b (Re-Sampler192/MBit+ Dither/Fades) > CDWave > FLAC (8)
etree:notes
  • shntool info: length expanded size cdr WAVE problems fmt ratio filename 10:19.10 109215164 B --- -- ---xx flac 0.5461 tlg2008-09-04d1t01.flac 4:45.37 50361068 B --- -- ---xx flac 0.5533 tlg2008-09-04d1t02.flac 4:41.20 49615484 B --- -- ---xx flac 0.5507 tlg2008-09-04d1t03.flac 9:16.28 98144300 B --- -- ---xx flac 0.5403 tlg2008-09-04d1t04.flac 4:19.24 45744092 B --- -- ---xx flac 0.5682 tlg2008-09-04d1t05.flac 5:23.42 57076028 B --- -- ---xx flac 0.5643 tlg2008-09-04d1t06.flac 4:40.06 49406156 B --- -- ---xx flac 0.5807 tlg2008-09-04d1t07.flac 9:01.13 95463020 B --- -- ---xx flac 0.4741 tlg2008-09-04d1t08.flac 6:54.28 73095500 B --- -- ---xx flac 0.5885 tlg2008-09-04d1t09.flac 6:41.10 70759964 B --- -- ---xx flac 0.5072 tlg2008-09-04d2t01.flac 8:15.11 87343916 B --- -- ---xx flac 0.5011 tlg2008-09-04d2t02.flac 8:31.43 90241580 B --- -- ---xx flac 0.5559 tlg2008-09-04d2t03.flac 8:39.09 91572812 B --- -- ---xx flac 0.5616 tlg2008-09-04d2t04.flac 4:54.08 51880460 B --- -- ---xx flac 0.5079 tlg2008-09-04d2t05.flac 8:00.73 84843740 B --- -- ---xx flac 0.5447 tlg2008-09-04d2t06.flac 3:28.32 36766508 B --- -- ---xx flac 0.5163 tlg2008-09-04d2t07.flac 8:12.01 86791196 B --- -- ---xx flac 0.5396 tlg2008-09-04d2t08.flac 8:31.52 90262748 B --- -- ---xx flac 0.5756 tlg2008-09-04d2t09.flac 4:54.63 52009820 B --- -- ---xx flac 0.5315 tlg2008-09-04d2t10.flac 5:25.23 57384140 B --- -- ---xx flac 0.4619 tlg2008-09-04d2t11.flac 6:58.70 73899884 B --- -- ---xx flac 0.5619 tlg2008-09-04d2t12.flac 141:54.03 1501877580 B 0.5395 (21 files)
mo:performer
event:place
skos:prefLabel
  • Tea Leaf Green Live at Mercy Lounge on 2008-09-04
rdfs:seeAlso
etree:source
  • Schoeps MK4V > KC5 > CMC6 > Sound Devices 722 (24bit/96kHz)
event:time
rdf:type
etree:uploader
  • mlm1218@hotmail.com