PropertyValue
etree:date
  • 2009-01-21
etree:description
  • PERFORMANCE INFORMATION Band: Tea Leaf Green Date: January 21, 2009 Venue: Mexicali Blues Cafe City, State: Teaneck, NJ Taper: Chris Imburgia SETLIST & TRACKING INFORMATION Set One 01. These Two chairs 02. Faced With Love 03. Zoom Zoom 04. I'm Not Fit > 05. Asphalt Funk 06. Snow Days 07. Without A Broom 08. Farms Been Sold 09. The Garden (Part I) > 10. The Garden (Part II) > 11. The Garden (Part II) > 12. Garden Applause Set Two 13. Monsters At The Gate 14. Freedom 15. John Brown > 16. Georgie P 17. Keepin The Faith 18. Standing Still > 19. Don't Curse at the Night 20. It's All Too Much 21. Relax And Get Naked 22. E: Can't Get High > 23. E: Trouble 24. E: Looney Bin RECORDING INFORMATION Location: DFC/FOB Microphone: Soundfield ST-350 Microphone Configuration: XY Preamp: Soundfield ST-350 Controller Box A/D Conversion and Recording Deck: Edirol R44 (Oade Concert Mod) Recording Format: 4 Channel Wav File in B Format, 24 Bits @ 48 kHz Sample Rate CONVERSION INFORMATION Transfer: Edirol R44-> USB-> PC Post-Production: [1] Polar Pattern, Width, and B Format to Stereo Decoding with Nuendo 3 using the Soundfield Surround Zone Plugin [2] Song Tracking with CD Wave [3] Resample, Dither with Wavelab 5 [4] File Compression with FLAC Frontend (Level 6) [5] FLAC File Tagging with Foobar 2000 Live Show Tagger Plugin [6] Album Art tagging with Media Monkey 3.02 Final Microphone Configuration: [65% Cardioid xy @ 90 Degrees] + [35% Blumlein] Final File Format: Stereo FLAC Files, 16 Bits @ 44.1 kHz Sample Rate FLAC FINGERPRINT INFORMATION tlg2009-01-21t24.flac:4e85ec08ae2782b52d0b1a79c4081351 tlg2009-01-21t01.flac:2f7f485d1caa4aeddc39626bc953aa4d tlg2009-01-21t02.flac:ef1566fed7631f20c9eb06b940fcc04d tlg2009-01-21t03.flac:2bc00d5f941f3783820fdae7ebe2e022 tlg2009-01-21t04.flac:c1b2c3cd82bf177ecf980f730d9f8616 tlg2009-01-21t05.flac:23aebb05858e8d7bff6455fc53e14d86 tlg2009-01-21t06.flac:51f316f7ddb6d98348e02cf2109fbbe7 tlg2009-01-21t07.flac:71e05f0d5933b422bcef75a85b5a1f51 tlg2009-01-21t08.flac:016e00536ea802782cc2d475ad649b1c tlg2009-01-21t09.flac:6ce81adb4851dd67d3cb089f5c9f080d tlg2009-01-21t10.flac:81388f4699ff22669044d1197ce62ba1 tlg2009-01-21t11.flac:6eec9ba17127ffed73717473b6e62a00 tlg2009-01-21t12.flac:0d676e8e862a338f62edd3ac425d9561 tlg2009-01-21t13.flac:ac5e5713e1e0d310c8ad57e3d0e86426 tlg2009-01-21t14.flac:939d0172b242d41becb3c8055654ee08 tlg2009-01-21t15.flac:1b982d86ef3ec3e1422a978d3f1303f1 tlg2009-01-21t16.flac:d06121f6506681a8d292ee5c1cfa60e8 tlg2009-01-21t17.flac:437d57c02838b7183111019d05b77107 tlg2009-01-21t18.flac:a87a3ed1a890137257405c39adff6d2e tlg2009-01-21t19.flac:cc6a2871d4a4c28e4008962fb4fd8377 tlg2009-01-21t20.flac:379de1af81cf93ca2be17b1f33be5eeb tlg2009-01-21t21.flac:38b6679fd8f76f44605d0e2c138bab69 tlg2009-01-21t22.flac:72fe0bedece7d9e685c6e9d8d4128977 tlg2009-01-21t23.flac:4a996bd56557da836ea16f790854763e SECTOR BOUNDARY CONFIRMATION length expanded size cdr WAVE problems filename 5:41.25 60211244 --- -- ---xx tlg2009-01-21t01.flac 6:05.07 64402508 --- -- ---xx tlg2009-01-21t02.flac 11:22.67 120462428 --- -- ---xx tlg2009-01-21t03.flac 6:38.42 70306028 --- -- ---xx tlg2009-01-21t04.flac 7:31.68 79716380 --- -- ---xx tlg2009-01-21t05.flac 4:56.51 52334396 --- -- ---xx tlg2009-01-21t06.flac 4:15.23 45036140 --- -- ---xx tlg2009-01-21t07.flac 6:05.61 64529516 --- -- ---xx tlg2009-01-21t08.flac 1:46.67 18856028 --- -- ---xx tlg2009-01-21t09.flac 3:17.64 34901372 --- -- ---xx tlg2009-01-21t10.flac 5:14.34 55469612 --- -- ---xx tlg2009-01-21t11.flac 3:43.29 39405452 --- -- ---xx tlg2009-01-21t12.flac 7:17.58 77223260 --- -- ---xx tlg2009-01-21t13.flac 6:10.65 65420924 --- -- ---xx tlg2009-01-21t14.flac 8:51.15 93703724 --- -- ---xx tlg2009-01-21t15.flac 9:11.57 97330508 --- -- ---xx tlg2009-01-21t16.flac 6:07.32 64814108 --- -- ---xx tlg2009-01-21t17.flac 6:33.29 69393452 --- -- ---xx tlg2009-01-21t18.flac 8:00.59 84810812 --- -- ---xx tlg2009-01-21t19.flac 6:02.42 63955628 --- -- ---xx tlg2009-01-21t20.flac 5:26.15 57541724 --- -- ---xx tlg2009-01-21t21.flac 6:41.49 70851692 --- -- ---xx tlg2009-01-21t22.flac 7:28.36 79111916 --- -- ---xx tlg2009-01-21t23.flac 8:21.48 88489340 --- -- ---xx tlg2009-01-21t24.flac 152:53.68 1618278192 B (totals for 24 files, 0.5258 overall compression ratio)
event:hasSubEvent
etree:id
  • tlg2009-01-21.st350
etree:keyword
  • Tea Leaf Green
etree:lineage
etree:notes
mo:performer
event:place
skos:prefLabel
  • Tea Leaf Green Live at Mexicali Blues Cafe on 2009-01-21
rdfs:seeAlso
etree:source
event:time
rdf:type
etree:uploader
  • chrisimburgia@gmail.com