PropertyValue
etree:date
  • 2011-08-20
etree:description
event:hasSubEvent
etree:id
  • wtf2011-08-20.Schoeps_mk41mix_16bit
etree:keyword
  • Great Bay Music Festival 2011
etree:lineage
  • SDHC Card>USB>Macbook Pro>Audacity(mixing)>Wave Editor(tracking,fades,add gain,resample(izotope)/dither(mbit+)to 16 bit/44.1k)>XAct(FLAC 8,ffp,fix sbe)
etree:notes
  • Welcome To Florida 2011-08-20 Great Bay Music Festival Back River Farm Dover, NH Recorded and transferred by Andy Murray Mics were 100' from stage DFC DIN Schoeps MK41>KC5>CMC6>Sonosax SX-M2>Apogee Mini-me(aes out24bit/96khz)>COAX>Edirol R-44 + Soundboard>R-44 SDHC Card>USB>Macbook Pro>Audacity(mixing)>Wave Editor(tracking,fades,add gain,resample(izotope)/dither(mbit+) to 16bit/44.1 khz)>XACT(FLAC 8,ffp,fix sbe) 1 Disc 1 Set length expanded size cdr WAVE problems fmt ratio filename 5:32.12 58593068 B --- -- ----- wtf2011-08-20_mk41mix_1644_d1t01.wav 5:18.67 56252828 B --- -- ----- wtf2011-08-20_mk41mix_1644_d1t02.wav 6:29.00 68619644 B --- -- ----- wtf2011-08-20_mk41mix_1644_d1t03.wav 3:39.64 38782172 B --- -- ----- wtf2011-08-20_mk41mix_1644_d1t04.wav 2:49.55 29941004 B --- -- ----- wtf2011-08-20_mk41mix_1644_d1t05.wav 3:10.18 33558380 B --- -- ----- wtf2011-08-20_mk41mix_1644_d1t06.wav 4:42.55 49874204 B --- -- ----- wtf2011-08-20_mk41mix_1644_d1t07.wav 6:13.33 65874860 B --- -- ----- wtf2011-08-20_mk41mix_1644_d1t08.wav 4:06.01 43396796 B --- -- ----- wtf2011-08-20_mk41mix_1644_d1t09.wav 42:02.05 444892956 B 1.0000 (9 files)
mo:performer
event:place
skos:prefLabel
  • Welcome To Florida Live at Great Bay Music Festival, Back River Farm on 2011-08-20
rdfs:seeAlso
etree:source
  • Schoeps MK41>KC5>CMC6>Sonosax SX-M2>Apogee Mini-me(aes out,24bit/96khz)>COAX>Edirol R-44 & Soundboard>R-44
event:time
rdf:type
etree:uploader
  • andyjah420@yahoo.com