PropertyValue
etree:date
  • 1990-11-20
etree:description
  • Lawyers Guns and Money, Splendid Isolation, Stop Breaking Down, Roland The Headless Thompson Gunner, One Woman Man, Carmenita, Things To Do In Denver When You're Dead, Factory, Poor Poor Pitiful Me, Hula Hula Boys, Accidentally Like A Martyr, Play It All Night Long, Raspberry Beret, Desperados Under The Eaves, Boom Boom Mancini, Winter Wonderland, Werewolves Of London, Ain't That Pretty At All
event:hasSubEvent
etree:id
  • zevon1990-11-20-flac16
etree:keyword
  • Live concert
etree:lineage
  • CAS/2 - SHN - FLAC
etree:notes
  • Soundboard > Master cassette > 1st gen cass > 2nd gen cassette > Sony D6C > Audiomedia III PCI card > Powermac G3/266 > Protools 4.1.1 +21dB total gain> Shorten 1.1a3 > SHN files December 2005- SHN > xACT 1.5b3 > FLAC (Level 8 compression and alignment of tracks to 1/75 second intervals for CD's) Setlist: 1 Lawyers Guns and Money 2 Splendid Isolation 3 Stop Breaking Down 4 Roland The Headless Thompson Gunner 5 One Woman Man 6 Carmenita 7 Things To Do In Denver When You're Dead 8 Factory 9 Poor Poor Pitiful Me (master cassette flip) 10 Hula Hula 11 Accidentally Like A Martyr 12 Play It All Night Long 13 Raspberry Beret (Prince) 14 Desperados Under The Eaves 15 Boom Boom Mancini 16 Winter Wonderland 17 Werewolves Of London 18 Ain't That Pretty At All shntool results length expanded size cdr WAVE problems filename 3:44.73 39685340 --- -- ---xx zevon1990-11-20d1t01.flac 4:46.26 50511596 --- -- ---xx zevon1990-11-20d1t02.flac 4:24.53 46694300 --- -- ---xx zevon1990-11-20d1t03.flac 10:21.41 109640876 --- -- ---xx zevon1990-11-20d1t04.flac 4:27.50 47216444 --- -- ---xx zevon1990-11-20d1t05.flac 4:17.05 45346604 --- -- ---xx zevon1990-11-20d1t06.flac 3:41.70 39149084 --- -- ---xx zevon1990-11-20d1t07.flac 4:59.66 52898876 --- -- ---xx zevon1990-11-20d1t08.flac 5:51.33 61994060 --- -- ---xx zevon1990-11-20d1t09.flac 4:36.44 48789932 --- -- ---xx zevon1990-11-20d2t01.flac 4:50.36 51240716 --- -- ---xx zevon1990-11-20d2t02.flac 4:17.42 45433628 --- -- ---xx zevon1990-11-20d2t03.flac 4:51.50 51450044 --- -- ---xx zevon1990-11-20d2t04.flac 6:02.66 64012076 --- -- ---xx zevon1990-11-20d2t05.flac 8:07.16 85944476 --- -- ---xx zevon1990-11-20d2t06.flac 2:10.69 23094332 --- -- ---xx zevon1990-11-20d2t07.flac 4:32.02 47985548 --- -- ---xx zevon1990-11-20d2t08.flac 8:11.74 86786492 --- -- ---xx zevon1990-11-20d2t09.flac 94:16.66 997874424 B (totals for 18 files, 0.5660 overall compression ratio)
mo:performer
event:place
skos:prefLabel
  • Warren Zevon Live at The Shadow on 1990-11-20
rdfs:seeAlso
etree:source
  • SBD - CAS/2
event:time
rdf:type
etree:uploader
  • acffhmorst@gmail.com